<?xml version="1.0" encoding="UTF-8"?>
<svg height="100%" width="100%" xmlns="http://www.w3.org/2000/svg">
	<defs>
		<font horiz-adv-x="243" id="web">
			<font-face alphabetic="0" ascent="987" descent="-223" font-family="" panose-1="2 11 8 4 2 2 2 2 2 4"/>
			<missing-glyph d="M-8 718H504V0H-8ZM42 667V50H454V667ZM251 609Q305 609 340 573T375 478Q375 446 363 421T311 357Q277 326 270 311Q263 294 263 234H217L215 253Q215 308 230 335T278 395Q324 436 324 474Q324 508 300 533T248 559Q178 559 166 464L116 472Q130 609 251 609ZM214 184H270V117H214Z" horiz-adv-x="496"/>
			<glyph d="" horiz-adv-x="238" unicode=" "/>
			<glyph d="M57 714H205V522L166 214H95L57 522ZM53 154H210V0H53Z" horiz-adv-x="262" unicode="!"/>
			<glyph d="M77 714H184V393H77ZM263 714H370V393H263Z" horiz-adv-x="447" unicode="&quot;"/>
			<glyph d="M178 700H275L247 502H344L371 700H468L441 502H515V412H428L411 288H485V198H398L371 0H274L301 198H205L178 3L177 0H80L108 198H25V288H120L138 412H55V502H150ZM235 412L217 288H314L331 412Z" horiz-adv-x="540" unicode="#"/>
			<glyph d="M240 808H299V731Q402 720 460 665T524 518H382Q380 560 356 587T299 614V437Q432 408 490 354T549 198Q549 148 519 98T432 18T299 -17V-102H240V-17Q131 -10 66 52T-9 232H133V229Q133 178 162 144T240 100V309Q170 328 148 336T91 363T32 421T8 517Q8 606 70 664T240 731ZM240 614Q202 614 176 591T150 531Q150 499 171 480T240 451ZM299 292V100Q346 105 376 131T407 198Q407 236 383 256T299 292Z" horiz-adv-x="540" unicode="$"/>
			<glyph d="M660 722H745L333 -22H246ZM237 714Q316 714 358 662T401 513Q401 421 357 372T232 324Q67 324 67 516Q67 608 112 661T237 714ZM237 639Q204 639 186 610T169 513Q169 446 185 422T233 399Q299 399 299 513Q299 639 237 639ZM753 376Q917 376 917 180Q917 90 873 38T748 -14Q662 -14 622 39T583 183Q583 273 628 324T753 376ZM752 301Q685 301 685 182Q685 112 701 86T749 61Q787 61 801 94T815 182Q815 301 752 301Z" horiz-adv-x="984" unicode="%"/>
			<glyph d="M303 722Q388 722 443 676T498 551Q498 441 371 373L463 260Q483 295 489 345H612Q601 245 543 169L688 0H514L456 71Q369 -14 255 -14Q151 -14 87 45T24 200Q24 331 184 407Q144 453 130 488T116 559Q116 629 170 675T303 722ZM308 627Q283 627 264 610T245 564Q245 540 257 516T301 457Q339 480 356 503T374 559Q374 587 355 607T308 627ZM259 315Q159 273 159 197Q159 158 190 130T261 103Q325 103 381 166Z" horiz-adv-x="669" unicode="&amp;"/>
			<glyph d="M78 714H185V393H78Z" horiz-adv-x="262" unicode="'"/>
			<glyph d="M176 731H295Q186 529 186 278Q186 28 294 -182H176Q44 33 44 268Q44 393 80 518T176 731Z" horiz-adv-x="280" unicode="("/>
			<glyph d="M-14 731H104Q236 516 236 280Q236 158 201 34T104 -182H-15Q94 26 94 270Q94 519 -14 731Z" horiz-adv-x="280" unicode=")"/>
			<glyph d="M154 714H234V589L350 633L377 556L259 517L333 419L267 370L193 473L123 370L56 419L130 517L14 556L41 633L154 589Z" horiz-adv-x="391" unicode="*"/>
			<glyph d="M239 505H346V306H545V199H346V0H239V199H40V306H239Z" horiz-adv-x="584" unicode="+"/>
			<glyph d="M37 154H194V-2Q194 -63 152 -109T38 -166V-94Q70 -87 89 -61T109 -7V0H37Z" horiz-adv-x="231" unicode=","/>
			<glyph d="M45 334H346V212H45Z" horiz-adv-x="391" unicode="-"/>
			<glyph d="M37 154H194V0H37Z" horiz-adv-x="231" unicode="."/>
			<glyph d="M260 731H374L95 -17H-19Z" horiz-adv-x="355" unicode="/"/>
			<glyph d="M293 714Q419 714 485 623T551 353Q551 171 485 78T293 -14Q37 -14 37 353Q37 531 101 622T293 714ZM292 597Q237 597 208 541T179 357Q179 215 208 159T293 103Q337 103 361 133T397 211T409 357Q409 487 378 542T292 597Z" horiz-adv-x="588" unicode="0"/>
			<glyph d="M245 700H358V0H216V454H40V561H50Q223 561 245 700Z" horiz-adv-x="427" unicode="1"/>
			<glyph d="M295 714Q398 714 466 652T535 495Q535 451 522 414T477 342T368 255Q251 182 208 122H539V0H25Q25 91 68 157T231 303Q326 366 351 391T384 438T393 484Q393 532 365 562T288 592Q235 592 206 549T177 431H41V444Q41 567 110 640T295 714Z" horiz-adv-x="564" unicode="2"/>
			<glyph d="M294 714Q393 714 461 658T529 520Q529 468 504 429T431 377V375Q490 362 522 318T555 216Q555 114 481 50T295 -14Q175 -14 105 53T35 233V241H170Q173 175 205 139T293 103Q343 103 375 133T407 213Q407 274 370 295T267 317H245V417H271Q331 417 362 439T394 504Q394 549 364 573T295 597Q244 597 215 564T187 472H52Q56 583 121 648T294 714Z" horiz-adv-x="586" unicode="3"/>
			<glyph d="M324 700H451V279H544V162H451V0H316V162H20V292ZM313 522L132 279H316V522Z" horiz-adv-x="564" unicode="4"/>
			<glyph d="M116 700H507V583H218L190 424L192 422Q246 476 329 476Q426 476 485 410T545 238Q545 133 469 59T288 -14Q171 -14 99 47T25 208H167Q172 160 203 131T282 103Q335 103 369 142T403 238Q403 294 370 331T281 369Q243 369 219 355T175 313H47Z" horiz-adv-x="575" unicode="5"/>
			<glyph d="M312 714Q405 714 466 663T539 520H404Q396 560 370 583T310 607Q252 607 216 549T176 394L178 392Q232 470 335 470Q425 470 488 407T551 242Q551 133 483 59T306 -14Q176 -14 106 78T37 348Q37 504 108 609T312 714ZM301 363Q250 363 219 327T189 233Q189 179 220 141T302 103Q349 103 379 141T409 231Q409 289 379 326T301 363Z" horiz-adv-x="581" unicode="6"/>
			<glyph d="M-5 700H473V578Q373 489 309 325T244 0H92Q104 156 165 301T327 568H-5Z" horiz-adv-x="468" unicode="7"/>
			<glyph d="M300 714Q371 714 424 687T505 616T534 525Q534 474 508 435T432 379V377Q498 361 530 316T563 206Q563 107 489 46T301 -14Q185 -14 110 45T35 205Q35 271 69 316T167 377V379Q117 393 90 431T64 523Q64 608 133 661T300 714ZM299 607Q253 607 223 579T193 510Q193 465 225 441T300 418Q345 418 375 441T405 510Q405 556 376 581T299 607ZM300 323Q247 323 212 294T177 212Q177 158 212 125T301 93Q353 93 387 126T421 211Q421 259 387 291T300 323Z" horiz-adv-x="598" unicode="8"/>
			<glyph d="M276 714Q405 714 474 621T544 353Q544 189 469 87T269 -14Q177 -14 115 36T42 180H177Q185 142 210 117T271 93Q328 93 362 147T405 306L403 308Q348 230 245 230Q188 230 137 259T58 338T30 458Q30 569 99 641T276 714ZM279 597Q232 597 202 559T172 469Q172 411 201 374T279 337Q328 337 360 371T392 467Q392 521 361 559T279 597Z" horiz-adv-x="581" unicode="9"/>
			<glyph d="M53 508H210V354H53ZM53 154H210V0H53Z" horiz-adv-x="262" unicode=":"/>
			<glyph d="M53 508H210V354H53ZM53 154H210V-1Q210 -66 165 -111T54 -166V-94Q84 -88 104 -63T125 -7V0H53Z" horiz-adv-x="262" unicode=";"/>
			<glyph d="M546 514V399L179 253L546 107V-8L38 194V312Z" horiz-adv-x="584" unicode="&lt;"/>
			<glyph d="M40 413H545V306H40ZM40 199H545V92H40Z" horiz-adv-x="584" unicode="="/>
			<glyph d="M38 514L546 312V194L38 -8V107L405 253L38 399Z" horiz-adv-x="584" unicode="&gt;"/>
			<glyph d="M267 731Q344 731 399 705T485 634T516 537Q516 485 497 443T429 367Q370 324 352 299T334 243V214H199V243Q199 303 221 343T288 418Q335 454 347 474T359 524Q359 614 274 614Q224 614 197 579T171 484H24Q26 595 93 663T267 731ZM185 154H342V0H185Z" horiz-adv-x="540" unicode="?"/>
			<glyph d="M408 731Q500 731 581 691T709 581T756 426Q756 343 720 279T625 175T520 136Q491 136 470 151T448 193H446Q410 135 338 135Q275 135 228 185T181 307Q181 409 244 485T399 561Q436 561 468 543T516 491L532 545H614L553 295Q543 261 543 244Q543 221 560 221Q608 221 643 276T678 405Q678 516 604 583T407 651Q282 651 203 569T124 355Q124 228 205 145T419 63Q481 63 538 84T634 145H718Q664 64 584 23T413 -17Q253 -17 140 90T28 357Q28 458 78 544T217 680T408 731ZM406 466Q359 466 321 421T283 319Q283 281 303 255T361 230Q411 230 447 276T484 381Q484 416 462 441T406 466Z" horiz-adv-x="784" unicode="@"/>
			<glyph d="M265 714H426L693 0H530L476 159H209L153 0H-6ZM343 538L250 276H435L345 538Z" horiz-adv-x="687" unicode="A"/>
			<glyph d="M59 714H396Q623 714 623 538Q623 437 526 388Q592 369 624 321T657 207Q657 111 587 55T405 0H59ZM216 592V425H376Q471 425 471 510Q471 592 365 592ZM216 318V122H385Q500 122 500 216Q500 318 388 318Z" horiz-adv-x="684" unicode="B"/>
			<glyph d="M379 731Q504 731 589 660T687 474H535Q527 527 482 563T379 599Q287 599 236 533T185 354Q185 244 236 179T379 115Q447 115 489 156T541 275H693Q681 139 595 61T379 -17Q222 -17 125 86T28 354Q28 520 124 625T379 731Z" horiz-adv-x="712" unicode="C"/>
			<glyph d="M59 714H365Q517 714 604 620T691 361Q691 190 603 95T369 0H59ZM216 582V132H355Q440 132 487 188T534 347Q534 465 483 523T328 582Z" horiz-adv-x="721" unicode="D"/>
			<glyph d="M59 714H593V582H216V429H562V307H216V132H601V0H59Z" horiz-adv-x="636" unicode="E"/>
			<glyph d="M59 714H561V582H216V417H515V295H216V0H59Z" horiz-adv-x="581" unicode="F"/>
			<glyph d="M379 731Q501 731 586 660T680 479H530Q516 539 476 569T379 599Q287 599 236 532T185 354Q185 244 237 179T379 115Q533 115 549 269H391V386H691V0H591L575 81Q500 -17 379 -17Q221 -17 124 87T28 354Q28 520 124 625T379 731Z" horiz-adv-x="733" unicode="G"/>
			<glyph d="M59 714H216V440H505V714H662V0H505V308H216V0H59Z" horiz-adv-x="721" unicode="H"/>
			<glyph d="M59 714H216V0H59Z" horiz-adv-x="275" unicode="I"/>
			<glyph d="M330 714H487V224Q487 -17 251 -17Q144 -17 79 41T14 202V266H156V231Q156 168 179 141T247 115Q290 115 310 139T330 226Z" horiz-adv-x="546" unicode="J"/>
			<glyph d="M59 714H216V418L495 714H691L412 432L718 0H521L306 321L216 230V0H59Z" horiz-adv-x="712" unicode="K"/>
			<glyph d="M59 714H216V132H564V0H59Z" horiz-adv-x="578" unicode="L"/>
			<glyph d="M59 714H280L447 223H449L607 714H828V0H681V506H679L504 0H383L208 501H206V0H59Z" horiz-adv-x="887" unicode="M"/>
			<glyph d="M59 714H215L513 235H515V714H662V0H505L208 478H206V0H59Z" horiz-adv-x="721" unicode="N"/>
			<glyph d="M379 731Q537 731 633 626T730 354Q730 191 633 87T379 -17Q221 -17 124 87T28 354Q28 520 125 625T379 731ZM378 599Q288 599 236 534T185 354Q185 246 236 180T379 115Q469 115 521 179T573 354Q573 469 521 534T378 599Z" horiz-adv-x="758" unicode="O"/>
			<glyph d="M59 714H382Q496 714 562 652T628 485Q628 379 562 317T383 256H216V0H59ZM216 592V378H341Q409 378 442 403T476 485Q476 540 443 566T342 592Z" horiz-adv-x="637" unicode="P"/>
			<glyph d="M379 731Q538 731 634 625T730 354Q730 198 637 91L726 10L653 -67L552 25Q478 -17 379 -17Q221 -17 124 88T28 354Q28 520 124 625T379 731ZM378 599Q289 599 237 534T185 354Q185 245 236 180T380 115Q431 115 442 125L375 186L448 264L529 190Q573 247 573 354Q573 468 521 533T378 599Z" horiz-adv-x="758" unicode="Q"/>
			<glyph d="M59 714H444Q534 714 593 658T653 517Q653 383 540 338V336Q578 325 599 299T632 240T646 131Q650 33 674 0H517Q504 33 497 124Q489 220 462 249T374 279H216V0H59ZM216 592V391H389Q439 391 467 413T496 493Q496 547 468 569T388 592Z" horiz-adv-x="693" unicode="R"/>
			<glyph d="M304 731Q435 731 512 671T590 501H438Q435 555 401 582T298 609Q249 609 219 587T189 528Q189 497 207 483T260 458T379 426Q468 404 516 378T589 311T614 212Q614 144 578 91T473 10T317 -17Q184 -17 98 49T13 232V237H165Q165 174 208 139T322 105Q385 105 423 127T462 194Q462 223 441 243T385 275T267 307Q171 331 127 358T60 423T37 516Q37 583 75 633T176 707T304 731Z" horiz-adv-x="629" unicode="S"/>
			<glyph d="M14 714H599V582H385V0H228V582H14Z" horiz-adv-x="613" unicode="T"/>
			<glyph d="M56 714H213V267Q213 188 248 151T360 115Q442 115 475 151T508 267V714H665V267Q665 133 588 58T360 -17Q205 -17 130 58T56 267Z" horiz-adv-x="721" unicode="U"/>
			<glyph d="M-16 714H146L305 212H307L468 714H630L393 0H216Z" horiz-adv-x="614" unicode="V"/>
			<glyph d="M-7 714H150L263 228H265L389 714H536L658 222H660L777 714H931L739 0H583L462 486H460L341 0H182Z" horiz-adv-x="924" unicode="W"/>
			<glyph d="M14 714H196L336 486L481 714H653L424 373L673 0H486L330 247L171 0H-6L244 374Z" horiz-adv-x="667" unicode="X"/>
			<glyph d="M-19 714H158L325 432L491 714H666L401 274V0H244V278Z" horiz-adv-x="647" unicode="Y"/>
			<glyph d="M56 714H618V590L235 132H628V0H26V124L409 582H56Z" horiz-adv-x="652" unicode="Z"/>
			<glyph d="M60 731H324V619H202V-70H324V-182H60Z" horiz-adv-x="317" unicode="["/>
			<glyph d="M-19 731H95L374 -17H260Z" horiz-adv-x="355" unicode="\"/>
			<glyph d="M-7 731H257V-182H-7V-70H115V619H-7Z" horiz-adv-x="317" unicode="]"/>
			<glyph d="M225 700H359L531 315H414L292 590L170 315H53Z" horiz-adv-x="584" unicode="^"/>
			<glyph d="M-8 -75H492V-125H-8Z" horiz-adv-x="484" unicode="_"/>
			<glyph d="M-56 731H101L197 589H98Z" unicode="`"/>
			<glyph d="M284 531Q510 530 510 384V110Q510 34 528 0H384Q376 24 374 50Q311 -14 200 -14Q119 -14 71 27T24 141Q24 212 69 251Q115 292 236 303Q322 312 345 325T368 367Q368 402 347 419T277 436Q232 436 209 417T182 358H40Q45 443 110 487T284 531ZM368 253Q351 236 282 228Q222 221 194 203T166 147Q166 81 253 81Q367 82 368 198Z" horiz-adv-x="558" unicode="a"/>
			<glyph d="M50 714H192V454H194Q217 489 259 510T357 531Q452 531 511 455T571 259Q571 138 512 62T356 -14Q230 -14 187 66H185V0H50ZM307 424Q251 424 219 378T187 258Q187 183 220 138T308 93Q362 93 395 137T429 258Q429 334 396 379T307 424Z" horiz-adv-x="599" unicode="b"/>
			<glyph d="M294 531Q399 531 465 477T537 335H398Q384 424 293 424Q237 424 204 378T172 256Q172 183 203 138T290 93Q387 93 403 198H540Q526 95 460 40T291 -14Q176 -14 103 59T30 251Q30 379 102 455T294 531Z" horiz-adv-x="558" unicode="c"/>
			<glyph d="M408 714H550V0H415V66H413Q367 -14 256 -14Q149 -14 86 64T24 263Q24 381 87 456T253 531Q300 531 341 511T406 454H408ZM290 424Q229 424 197 379T166 259Q166 188 199 140T291 93Q352 93 382 137T413 260Q413 338 381 381T290 424Z" horiz-adv-x="595" unicode="d"/>
			<glyph d="M288 531Q361 531 418 497T507 398T540 250Q540 242 539 224H166Q168 162 198 127T292 93Q331 93 363 112T405 160H530Q475 -14 288 -14Q217 -13 156 17T60 110T24 258Q24 337 60 402T157 499T288 531ZM283 424Q231 424 201 394T166 314H397Q387 372 360 398T283 424Z" horiz-adv-x="567" unicode="e"/>
			<glyph d="M250 714Q268 714 325 710V604Q297 607 274 607Q243 607 231 593T219 547V517H317V422H219V0H77V422H-8V517H77V555Q77 631 122 672T250 714Z" horiz-adv-x="322" unicode="f"/>
			<glyph d="M249 531Q356 531 403 448H405V517H540V32Q540 -80 470 -138T273 -196Q175 -196 111 -149T44 -30H185Q202 -101 291 -101Q346 -101 375 -68T405 24V95H403Q382 57 341 36T248 15Q144 15 85 83T27 275Q27 385 88 458T249 531ZM283 424Q228 424 198 382T169 277Q169 204 199 163T284 122Q339 122 372 161T405 266Q405 344 373 384T283 424Z" horiz-adv-x="586" unicode="g"/>
			<glyph d="M50 714H192V445H195Q219 485 260 508T347 531Q446 531 490 481T535 323V0H393V294Q393 357 372 388T302 419Q245 419 218 384T192 271V0H50Z" horiz-adv-x="581" unicode="h"/>
			<glyph d="M50 714H192V597H50ZM50 517H192V0H50Z" horiz-adv-x="242" unicode="i"/>
			<glyph d="M59 714H201V597H59ZM59 517H201V-29Q201 -85 184 -117T130 -165T20 -182Q-8 -182 -27 -178V-61Q-15 -65 5 -65Q36 -65 48 -52T59 -18Z" horiz-adv-x="251" unicode="j"/>
			<glyph d="M50 714H192V331L371 517H539L344 327L561 0H389L247 231L192 178V0H50Z" horiz-adv-x="553" unicode="k"/>
			<glyph d="M50 714H192V0H50Z" horiz-adv-x="242" unicode="l"/>
			<glyph d="M344 531Q457 531 495 445Q554 531 652 531Q749 531 794 482T840 347V0H698V299Q698 367 677 393T611 419Q516 419 516 289V0H374V305Q374 371 353 395T288 419Q247 419 219 386T192 301V0H50V517H184V447H186Q245 531 344 531Z" horiz-adv-x="890" unicode="m"/>
			<glyph d="M343 531Q442 531 486 481T531 322V0H389V293Q389 357 368 388T298 419Q240 419 214 384T188 269V0H46V517H181V445H184Q237 531 343 531Z" horiz-adv-x="577" unicode="n"/>
			<glyph d="M294 531Q418 531 490 455T562 258Q562 135 488 60T294 -14Q171 -14 99 61T27 258Q27 383 100 457T294 531ZM293 424Q233 424 201 381T169 258Q169 179 201 136T294 93Q357 93 388 137T420 258Q420 338 387 381T293 424Z" horiz-adv-x="589" unicode="o"/>
			<glyph d="M337 531Q444 531 508 456T572 253Q572 136 510 61T345 -14Q243 -14 190 64H188V-182H46V517H181V451H183Q234 531 337 531ZM305 424Q246 424 214 380T183 257Q183 181 215 137T307 93Q369 93 399 137T430 257Q430 335 397 379T305 424Z" horiz-adv-x="595" unicode="p"/>
			<glyph d="M256 531Q368 531 413 451H415V517H550V-182H408V65H406Q383 26 339 6T243 -14Q182 -14 132 18T53 111T24 254Q24 377 87 454T256 531ZM291 424Q232 424 199 379T166 258Q166 178 198 135T289 93Q349 93 381 136T413 256Q413 335 379 379T291 424Z" horiz-adv-x="595" unicode="q"/>
			<glyph d="M348 531Q366 531 379 526V394Q356 399 328 399Q188 399 188 233V0H46V517H181V421H183Q204 471 249 501T348 531Z" horiz-adv-x="373" unicode="r"/>
			<glyph d="M258 531Q362 531 420 489T486 366H351Q348 403 324 419T254 436Q214 436 194 424T175 388Q175 370 188 358T227 337T286 322Q383 303 423 283T481 235T500 166Q500 79 436 32T264 -14Q150 -14 86 35T21 168H156Q156 128 187 104T265 81Q305 81 331 98T358 147Q358 167 341 180T295 203T202 226Q152 236 113 253T53 297T33 365Q33 416 57 454T132 511T258 531Z" horiz-adv-x="521" unicode="s"/>
			<glyph d="M84 672H226V517H330V422H226V166Q226 130 238 118T286 106Q312 106 330 110V-1Q300 -6 246 -6Q164 -6 124 22T84 119V422H-2V517H84Z" horiz-adv-x="357" unicode="t"/>
			<glyph d="M46 517H188V224Q188 164 207 131T279 98Q338 98 363 133T389 245V517H531V0H396V72H393Q340 -14 234 -14Q133 -14 89 37T46 196Z" horiz-adv-x="577" unicode="u"/>
			<glyph d="M-3 517H146L255 164H257L366 517H507L332 0H174Z" horiz-adv-x="504" unicode="v"/>
			<glyph d="M2 517H152L247 166H249L335 517H473L561 167H563L658 517H804L641 0H495L403 347H401L313 0H166Z" horiz-adv-x="806" unicode="w"/>
			<glyph d="M8 517H170L261 382L351 517H508L338 275L529 0H367L259 163L151 0H-8L178 272Z" horiz-adv-x="521" unicode="x"/>
			<glyph d="M-3 517H149L266 163H268L381 517H528L312 -65Q289 -126 248 -154T136 -182Q105 -182 47 -177V-60Q85 -65 122 -65Q152 -65 168 -46T185 0Q185 16 179 32Z" horiz-adv-x="525" unicode="y"/>
			<glyph d="M37 517H473V410L204 107H492V0H17V107L286 410H37Z" horiz-adv-x="504" unicode="z"/>
			<glyph d="M202 731H325V619H271Q217 619 217 548V395Q217 287 118 276V273Q158 268 187 240T217 164V1Q217 -70 272 -70H325V-182H201Q150 -182 112 -141T75 -48V148Q75 183 47 207T-17 231V318Q21 320 48 343T75 406V597Q75 650 113 690T202 731Z" horiz-adv-x="317" unicode="{"/>
			<glyph d="M50 786H157V-214H50Z" horiz-adv-x="207" unicode="|"/>
			<glyph d="M-8 731H118Q165 731 203 691T242 595V407Q242 366 269 343T334 318V231Q292 229 267 205T242 150V-48Q242 -86 224 -116T177 -164T118 -182H-8V-70H46Q100 -70 100 2V163Q100 210 129 239T199 273V276Q147 281 123 314T100 392V548Q100 619 46 619H-8Z" horiz-adv-x="317" unicode="}"/>
			<glyph d="M485 344L525 251Q496 207 466 186T400 165Q355 165 290 199Q224 233 183 233Q131 233 99 161L59 254Q104 340 184 340Q230 340 308 302Q368 272 397 272Q421 272 441 289T485 344Z" horiz-adv-x="584" unicode="~"/>
			<glyph d="" horiz-adv-x="278" unicode=" "/>
			<glyph d="M53 531H210V377H53ZM96 317H167L205 9V-183H57V9Z" horiz-adv-x="262" unicode="¡"/>
			<glyph d="M252 616H311V531Q401 531 466 474T535 334H396Q393 369 369 395T311 424V93Q349 100 373 132T398 203H537Q529 111 468 52T311 -14V-115H252V-14Q147 -8 80 66T13 250Q13 371 77 446T252 531ZM252 423Q205 411 180 369T155 264Q155 196 180 152T252 93Z" horiz-adv-x="540" unicode="¢"/>
			<glyph d="M287 731Q402 731 466 668T531 481H396Q390 614 287 614Q244 614 216 590T189 521Q189 494 195 471T230 394H363V309H258Q266 287 266 248Q266 205 245 172T184 107L186 105Q226 128 254 128Q287 128 332 117Q388 105 412 105Q440 105 459 115T499 148L559 47Q493 -17 402 -17Q340 -17 291 2T195 21Q128 21 80 -17L18 76Q131 147 131 242Q131 268 112 309H13V394H77Q58 418 45 455T32 532Q32 621 102 676T287 731ZZ" horiz-adv-x="540" unicode="£"/>
			<glyph d="M467 610L528 549L472 494Q517 443 517 351Q517 260 471 205L526 149L471 94L414 152Q364 102 271 102Q177 102 124 151L68 93L12 149L69 207Q21 264 21 349Q21 445 69 493L12 551L69 608L126 552Q151 573 190 585T272 598Q306 598 344 587T409 553ZM271 491Q216 491 180 451T145 349Q145 288 180 248T271 209Q327 209 360 249T393 351Q393 412 359 451T271 491Z" horiz-adv-x="540" unicode="¤"/>
			<glyph d="M-17 714H146L278 403L407 714H569L414 403H509V308H366L351 279V233H509V138H351V0H199V138H42V233H199V279L185 308H42V403H137Z" horiz-adv-x="540" unicode="¥"/>
			<glyph d="M50 661H157V411H50ZM50 161H157V-89H50Z" horiz-adv-x="207" unicode="¦"/>
			<glyph d="M275 731Q368 731 427 678T486 538H362Q362 576 338 600T277 624Q248 624 224 606T201 561Q201 533 230 508T325 455Q460 394 499 349T538 250Q538 198 509 159T434 104Q489 63 489 -14Q489 -88 427 -135T276 -182Q171 -182 111 -133T51 12H175Q179 -75 273 -75Q309 -75 328 -56T347 -7Q347 22 320 45T241 92L186 117Q85 163 43 208T2 312Q2 419 109 457Q66 506 66 558Q66 634 127 682T275 731ZM179 390Q159 390 142 369T126 323Q126 292 160 273L325 183Q350 169 368 169Q386 169 400 187T414 224Q414 262 369 287L195 385Q187 390 179 390Z" horiz-adv-x="540" unicode="§"/>
			<glyph d="M-49 715H86V598H-49ZM157 715H292V598H157Z" unicode="¨"/>
			<glyph d="M392 731Q497 731 585 683T725 549T776 357Q776 251 724 164T583 30T392 -17Q288 -17 198 31T58 166T8 357Q8 462 58 548T199 682T392 731ZM391 651Q272 651 191 567T110 357Q110 230 191 146T392 63Q512 63 593 147T674 357Q674 481 593 566T391 651ZM404 583Q477 583 526 541T585 428H507Q499 464 470 483T404 503Q347 503 317 463T287 361Q287 299 320 258T406 217Q446 217 473 237T507 295H588Q576 222 525 179T406 137Q310 137 250 200T191 359Q191 461 250 522T404 583Z" horiz-adv-x="784" unicode="©"/>
			<glyph d="M168 714Q243 714 280 692T318 624V456Q318 409 330 384H229Q224 400 222 415Q183 375 114 375Q61 375 31 401T2 475Q2 507 16 527T57 558T161 577Q187 580 204 585T223 610Q223 633 208 641T164 649Q119 647 114 605H12Q22 663 60 688T168 714ZM222 535Q212 525 174 520Q139 515 121 505T104 477Q105 441 150 440Q222 440 222 512Z" horiz-adv-x="328" unicode="ª"/>
			<glyph d="M191 463V343L101 272L191 200V80L34 205V340ZM394 463V343L304 272L394 200V80L237 205V340Z" horiz-adv-x="428" unicode="«"/>
			<glyph d="M40 406H544V99H437V299H40Z" horiz-adv-x="584" unicode="¬"/>
			<glyph d="M45 334H346V212H45Z" horiz-adv-x="391" unicode="­"/>
			<glyph d="M392 731Q496 731 584 683T724 549T776 358Q776 252 726 166T587 31T392 -17Q287 -17 198 31T59 166T8 358Q8 463 58 548T198 682T392 731ZM391 651Q272 651 191 568T110 358Q110 235 189 149T392 63Q512 63 593 148T674 358Q674 479 594 565T391 651ZM243 568H403Q485 568 525 538T565 444Q565 342 455 332L567 149H480L378 328H326V149H243ZM326 503V393H405Q449 393 465 407T482 451Q482 503 397 503Z" horiz-adv-x="784" unicode="®"/>
			<glyph d="M-65 694H308V619H-65Z" unicode="¯"/>
			<glyph d="M192 714Q254 714 297 671T340 566Q340 504 297 461T192 418Q131 418 87 461T44 566Q44 627 86 670T192 714ZM192 654Q159 654 134 627T109 566Q109 531 134 504T192 478Q225 478 250 504T275 566Q275 600 250 627T192 654Z" horiz-adv-x="384" unicode="°"/>
			<glyph d="M239 506H346V375H545V268H346V137H239V268H40V375H239ZM40 107H545V0H40Z" horiz-adv-x="584" unicode="±"/>
			<glyph d="M201 714Q270 714 313 677T357 579Q357 536 335 505T273 450T198 403T144 353H353V273H19Q19 329 42 368T108 435T202 497T255 572Q255 598 238 616T194 634Q160 634 141 608T122 547V540H20Q19 617 64 665T201 714Z" horiz-adv-x="376" unicode="²"/>
			<glyph d="M186 714Q254 714 299 680T345 591Q345 561 328 537T279 505V503Q317 496 338 470T360 409Q360 344 312 304T187 264Q107 264 59 303T12 418V424H108Q110 392 128 368T185 344Q215 344 236 361T258 407Q258 438 234 451T154 464V534Q208 533 228 545T249 581Q249 606 230 620T187 634Q155 634 137 613T120 562H24Q26 632 68 673T186 714Z" horiz-adv-x="376" unicode="³"/>
			<glyph d="M142 731H299L145 589H46Z" unicode="´"/>
			<glyph d="M46 517H188V225Q188 161 208 129T279 98Q338 98 363 133T389 245V517H531V0H396V72H393Q335 -14 263 -14Q219 -14 188 10V-182H46Z" horiz-adv-x="577" unicode="µ"/>
			<glyph d="M232 714H527V-166H425V634H315V-166H213V357Q105 358 49 405T-6 532Q-6 714 232 714Z" horiz-adv-x="604" unicode="¶"/>
			<glyph d="M132 372Q154 372 173 361T204 330T216 287Q216 267 205 247T174 215T133 203Q110 203 89 215T57 248T47 287Q47 310 59 330T91 361T132 372Z" horiz-adv-x="262" unicode="·"/>
			<glyph d="M107 0H156L117 -52L119 -54Q138 -47 159 -47Q198 -47 221 -67T245 -124Q245 -168 213 -192T119 -217Q59 -217 4 -195L25 -147Q69 -165 104 -165Q148 -164 149 -131Q149 -116 137 -107T107 -98Q89 -98 69 -106L48 -82Z" unicode="¸"/>
			<glyph d="M197 705H281V273H179V547H69V622H79Q131 622 161 643T197 705Z" horiz-adv-x="376" unicode="¹"/>
			<glyph d="M175 714Q253 714 300 668T347 544Q347 466 300 420T175 375Q97 375 50 420T4 544Q4 623 50 668T175 714ZM175 639Q147 639 129 613T111 544Q111 506 127 478T175 450Q203 450 221 476T240 544Q240 587 222 613T175 639Z" horiz-adv-x="351" unicode="º"/>
			<glyph d="M34 463L191 340V205L34 80V200L124 272L34 343ZM237 463L394 340V205L237 80V200L327 272L237 343Z" horiz-adv-x="428" unicode="»"/>
			<glyph d="M558 722H643L231 -22H144ZM144 705H228V273H126V547H16V622H26Q78 622 108 643T144 705ZM677 420H777V169H834V89H777V0H681V89H489V182ZM679 313L565 169H681V313Z" horiz-adv-x="876" unicode="¼"/>
			<glyph d="M558 722H643L231 -22H144ZM144 705H228V273H126V547H16V622H26Q78 622 108 643T144 705ZM682 441Q751 441 794 404T838 306Q838 263 816 232T754 177T679 130T625 80H834V0H500Q500 56 523 95T589 162T683 224T736 299Q736 325 719 343T675 361Q641 361 622 335T603 274V267H501Q500 344 545 392T682 441Z" horiz-adv-x="873" unicode="½"/>
			<glyph d="M643 722H728L316 -22H229ZM203 714Q271 714 316 680T362 591Q362 561 345 537T296 505V503Q334 496 355 470T377 409Q377 344 329 304T204 264Q124 264 76 303T29 418V424H125Q127 392 145 368T202 344Q232 344 253 361T275 407Q275 438 251 451T171 464V534Q225 533 245 545T266 581Q266 606 247 620T204 634Q172 634 154 613T137 562H41Q43 632 85 673T203 714ZM695 420H795V169H852V89H795V0H699V89H507V182ZM697 313L583 169H699V313Z" horiz-adv-x="873" unicode="¾"/>
			<glyph d="M198 531H355V377H198ZM206 321H341V296Q341 238 320 194T247 113Q210 86 195 63T181 12Q181 -79 266 -79Q316 -79 341 -42T367 51H514Q510 -64 443 -130T272 -196Q195 -196 139 -169T53 -98T24 -2Q24 55 43 94T111 168Q169 207 187 233T206 292ZZ" horiz-adv-x="540" unicode="¿"/>
			<glyph d="M265 714H426L693 0H530L476 159H209L153 0H-6ZM343 538L250 276H435L345 538ZM161 921H318L414 779H315Z" horiz-adv-x="687" unicode="À"/>
			<glyph d="M265 714H426L693 0H530L476 159H209L153 0H-6ZM343 538L250 276H435L345 538ZM370 921H527L373 779H274Z" horiz-adv-x="687" unicode="Á"/>
			<glyph d="M265 714H426L693 0H530L476 159H209L153 0H-6ZM343 538L250 276H435L345 538ZM283 921H413L523 779H408L346 860L282 779H172Z" horiz-adv-x="687" unicode="Â"/>
			<glyph d="M265 714H426L693 0H530L476 159H209L153 0H-6ZM343 538L250 276H435L345 538ZM279 911Q310 911 359 892Q400 876 422 876Q439 876 449 883T465 911H529Q517 851 489 824T417 797Q382 797 340 813Q294 831 270 831Q236 831 225 789H162Q169 843 201 877T279 911Z" horiz-adv-x="687" unicode="Ã"/>
			<glyph d="M265 714H426L693 0H530L476 159H209L153 0H-6ZM343 538L250 276H435L345 538ZM176 905H311V788H176ZM382 905H517V788H382Z" horiz-adv-x="687" unicode="Ä"/>
			<glyph d="M265 714H426L693 0H530L476 159H209L153 0H-6ZM343 538L250 276H435L345 538ZM346 987Q382 987 409 971T452 929T468 867Q468 833 451 805T406 762T345 747Q313 747 285 761T240 804T223 867Q223 902 241 931T287 973T346 987ZM345 934Q317 934 299 915T282 867Q282 838 299 819T345 800Q374 800 391 818T409 867Q409 896 392 915T345 934Z" horiz-adv-x="687" unicode="Å"/>
			<glyph d="M335 714H941V582H609V429H921V307H609V132H949V0H457V159H233L161 0H-6ZM423 582L285 276H457V582Z" horiz-adv-x="984" unicode="Æ"/>
			<glyph d="M379 731Q504 731 589 660T687 474H535Q525 528 481 563T379 599Q290 599 237 534T185 354Q185 243 237 179T379 115Q447 115 489 156T541 275H693Q681 140 595 61T380 -17L354 -52L356 -54Q370 -47 396 -47Q435 -47 458 -67T482 -124Q482 -169 449 -193T357 -217Q300 -217 241 -195L262 -147Q300 -165 341 -165Q386 -165 386 -131Q386 -116 374 -107T344 -98Q326 -98 306 -106L285 -82L333 -14Q196 0 112 101T28 354Q28 522 125 626T379 731Z" horiz-adv-x="712" unicode="Ç"/>
			<glyph d="M59 714H593V582H216V429H562V307H216V132H601V0H59ZM153 921H310L406 779H307Z" horiz-adv-x="636" unicode="È"/>
			<glyph d="M59 714H593V582H216V429H562V307H216V132H601V0H59ZM365 921H522L368 779H269Z" horiz-adv-x="636" unicode="É"/>
			<glyph d="M59 714H593V582H216V429H562V307H216V132H601V0H59ZM258 921H388L498 779H383L321 860L257 779H147Z" horiz-adv-x="636" unicode="Ê"/>
			<glyph d="M59 714H593V582H216V429H562V307H216V132H601V0H59ZM159 905H294V788H159ZM365 905H500V788H365Z" horiz-adv-x="636" unicode="Ë"/>
			<glyph d="M59 714H216V0H59ZM-37 921H120L216 779H117Z" horiz-adv-x="275" unicode="Ì"/>
			<glyph d="M59 714H216V0H59ZM154 921H311L157 779H58Z" horiz-adv-x="275" unicode="Í"/>
			<glyph d="M59 714H216V0H59ZM73 921H203L313 779H198L136 860L72 779H-38Z" horiz-adv-x="275" unicode="Î"/>
			<glyph d="M59 714H216V0H59ZM-34 905H101V788H-34ZM172 905H307V788H172Z" horiz-adv-x="275" unicode="Ï"/>
			<glyph d="M59 714H365Q517 714 604 620T691 361Q691 195 605 97T369 0H59V310H-7V427H59ZM216 582V427H376V310H216V132H356Q441 132 487 189T534 347Q534 465 484 523T327 582Z" horiz-adv-x="721" unicode="Ð"/>
			<glyph d="M59 714H215L513 235H515V714H662V0H505L208 478H206V0H59ZM298 911Q329 911 378 892Q419 876 441 876Q458 876 468 883T484 911H548Q536 851 508 824T436 797Q401 797 359 813Q313 831 289 831Q255 831 244 789H181Q188 843 220 877T298 911Z" horiz-adv-x="721" unicode="Ñ"/>
			<glyph d="M379 731Q537 731 633 626T730 354Q730 191 633 87T379 -17Q221 -17 124 87T28 354Q28 520 125 625T379 731ZM378 599Q288 599 236 534T185 354Q185 246 236 180T379 115Q469 115 521 179T573 354Q573 469 521 534T378 599ZM189 921H346L442 779H343Z" horiz-adv-x="758" unicode="Ò"/>
			<glyph d="M379 731Q537 731 633 626T730 354Q730 191 633 87T379 -17Q221 -17 124 87T28 354Q28 520 125 625T379 731ZM378 599Q288 599 236 534T185 354Q185 246 236 180T379 115Q469 115 521 179T573 354Q573 469 521 534T378 599ZM421 921H578L424 779H325Z" horiz-adv-x="758" unicode="Ó"/>
			<glyph d="M379 731Q537 731 633 626T730 354Q730 191 633 87T379 -17Q221 -17 124 87T28 354Q28 520 125 625T379 731ZM378 599Q288 599 236 534T185 354Q185 246 236 180T379 115Q469 115 521 179T573 354Q573 469 521 534T378 599ZM321 921H451L561 779H446L384 860L320 779H210Z" horiz-adv-x="758" unicode="Ô"/>
			<glyph d="M379 731Q537 731 633 626T730 354Q730 191 633 87T379 -17Q221 -17 124 87T28 354Q28 520 125 625T379 731ZM378 599Q288 599 236 534T185 354Q185 246 236 180T379 115Q469 115 521 179T573 354Q573 469 521 534T378 599ZM313 911Q344 911 393 892Q434 876 456 876Q473 876 483 883T499 911H563Q551 851 523 824T451 797Q416 797 374 813Q328 831 304 831Q270 831 259 789H196Q203 843 235 877T313 911Z" horiz-adv-x="758" unicode="Õ"/>
			<glyph d="M379 731Q537 731 633 626T730 354Q730 191 633 87T379 -17Q221 -17 124 87T28 354Q28 520 125 625T379 731ZM378 599Q288 599 236 534T185 354Q185 246 236 180T379 115Q469 115 521 179T573 354Q573 469 521 534T378 599ZM206 905H341V788H206ZM412 905H547V788H412Z" horiz-adv-x="758" unicode="Ö"/>
			<glyph d="M134 489L293 329L453 489L529 413L368 253L529 93L453 17L293 178L132 17L56 93L217 253L58 413Z" horiz-adv-x="584" unicode="×"/>
			<glyph d="M684 743L734 699L650 606Q730 506 730 354Q730 189 632 86T379 -17Q248 -17 156 59L73 -33L24 10L110 105Q28 205 28 354Q28 520 124 625T379 731Q513 731 604 654ZM378 599Q288 599 236 534T185 354Q185 275 213 219L509 548Q458 599 378 599ZM546 490L251 164Q300 115 379 115Q468 115 520 179T573 354Q573 432 546 490Z" horiz-adv-x="758" unicode="Ø"/>
			<glyph d="M56 714H213V267Q213 188 248 151T360 115Q442 115 475 151T508 267V714H665V267Q665 133 588 58T360 -17Q205 -17 130 58T56 267ZM163 921H320L416 779H317Z" horiz-adv-x="721" unicode="Ù"/>
			<glyph d="M56 714H213V267Q213 188 248 151T360 115Q442 115 475 151T508 267V714H665V267Q665 133 588 58T360 -17Q205 -17 130 58T56 267ZM400 921H557L403 779H304Z" horiz-adv-x="721" unicode="Ú"/>
			<glyph d="M56 714H213V267Q213 188 248 151T360 115Q442 115 475 151T508 267V714H665V267Q665 133 588 58T360 -17Q205 -17 130 58T56 267ZM299 921H429L539 779H424L362 860L298 779H188Z" horiz-adv-x="721" unicode="Û"/>
			<glyph d="M56 714H213V267Q213 188 248 151T360 115Q442 115 475 151T508 267V714H665V267Q665 133 588 58T360 -17Q205 -17 130 58T56 267ZM192 905H327V788H192ZM398 905H533V788H398Z" horiz-adv-x="721" unicode="Ü"/>
			<glyph d="M-19 714H158L325 432L491 714H666L401 274V0H244V278ZM366 921H523L369 779H270Z" horiz-adv-x="647" unicode="Ý"/>
			<glyph d="M59 714H216V617H383Q498 617 563 555T628 388Q628 281 561 220T381 159H216V0H59ZM216 495V281H341Q410 281 443 306T476 388Q476 445 443 470T339 495Z" horiz-adv-x="647" unicode="Þ"/>
			<glyph d="M283 731Q385 731 447 679T510 540Q510 490 484 451T417 400V398Q479 385 513 336T547 219Q547 122 484 54T329 -14Q291 -14 248 -8V108Q265 103 288 103Q338 103 371 137T405 225Q405 283 373 314T283 346L248 344V438L270 436Q316 436 345 460T375 525Q375 614 280 614Q233 614 211 586T190 516V0H48V494Q48 731 283 731Z" horiz-adv-x="595" unicode="ß"/>
			<glyph d="M284 531Q510 530 510 384V110Q510 34 528 0H384Q376 24 374 50Q311 -14 200 -14Q119 -14 71 27T24 141Q24 212 69 251Q115 292 236 303Q322 312 345 325T368 367Q368 402 347 419T277 436Q232 436 209 417T182 358H40Q45 443 110 487T284 531ZM368 253Q351 236 282 228Q222 221 194 203T166 147Q166 81 253 81Q367 82 368 198ZM120 731H277L373 589H274Z" horiz-adv-x="558" unicode="à"/>
			<glyph d="M284 531Q510 530 510 384V110Q510 34 528 0H384Q376 24 374 50Q311 -14 200 -14Q119 -14 71 27T24 141Q24 212 69 251Q115 292 236 303Q322 312 345 325T368 367Q368 402 347 419T277 436Q232 436 209 417T182 358H40Q45 443 110 487T284 531ZM368 253Q351 236 282 228Q222 221 194 203T166 147Q166 81 253 81Q367 82 368 198ZM316 731H473L319 589H220Z" horiz-adv-x="558" unicode="á"/>
			<glyph d="M284 531Q510 530 510 384V110Q510 34 528 0H384Q376 24 374 50Q311 -14 200 -14Q119 -14 71 27T24 141Q24 212 69 251Q115 292 236 303Q322 312 345 325T368 367Q368 402 347 419T277 436Q232 436 209 417T182 358H40Q45 443 110 487T284 531ZM368 253Q351 236 282 228Q222 221 194 203T166 147Q166 81 253 81Q367 82 368 198ZM220 731H350L460 589H345L283 670L219 589H109Z" horiz-adv-x="558" unicode="â"/>
			<glyph d="M284 531Q510 530 510 384V110Q510 34 528 0H384Q376 24 374 50Q311 -14 200 -14Q119 -14 71 27T24 141Q24 212 69 251Q115 292 236 303Q322 312 345 325T368 367Q368 402 347 419T277 436Q232 436 209 417T182 358H40Q45 443 110 487T284 531ZM368 253Q351 236 282 228Q222 221 194 203T166 147Q166 81 253 81Q367 82 368 198ZM217 721Q248 721 292 704Q336 686 360 686Q378 686 388 694T403 721H467Q458 669 431 638T355 607Q322 607 278 623Q233 641 208 641Q175 641 163 599H100Q107 652 139 686T217 721Z" horiz-adv-x="558" unicode="ã"/>
			<glyph d="M284 531Q510 530 510 384V110Q510 34 528 0H384Q376 24 374 50Q311 -14 200 -14Q119 -14 71 27T24 141Q24 212 69 251Q115 292 236 303Q322 312 345 325T368 367Q368 402 347 419T277 436Q232 436 209 417T182 358H40Q45 443 110 487T284 531ZM368 253Q351 236 282 228Q222 221 194 203T166 147Q166 81 253 81Q367 82 368 198ZM116 715H251V598H116ZM322 715H457V598H322Z" horiz-adv-x="558" unicode="ä"/>
			<glyph d="M284 531Q510 530 510 384V110Q510 34 528 0H384Q376 24 374 50Q311 -14 200 -14Q119 -14 71 27T24 141Q24 212 69 251Q115 292 236 303Q322 312 345 325T368 367Q368 402 347 419T277 436Q232 436 209 417T182 358H40Q45 443 110 487T284 531ZM368 253Q351 236 282 228Q222 221 194 203T166 147Q166 81 253 81Q367 82 368 198ZM284 804Q320 804 347 788T390 746T406 684Q406 650 389 622T344 579T283 564Q251 564 223 578T178 621T161 684Q161 719 179 748T225 790T284 804ZM283 751Q255 751 237 732T220 684Q220 655 237 636T283 617Q312 617 329 635T347 684Q347 713 330 732T283 751Z" horiz-adv-x="558" unicode="å"/>
			<glyph d="M287 531Q344 531 390 513T459 461Q491 497 530 514T632 531Q744 531 806 450T870 224H501V218Q501 162 536 121T624 81Q712 81 727 162H865Q842 81 778 33T627 -14Q495 -14 434 74Q401 30 344 8T223 -14Q133 -14 81 26T30 140Q30 193 54 226T115 275T234 303Q314 313 345 325T377 370Q377 436 285 436Q191 436 186 356H44Q46 437 109 484T287 531ZM616 436Q569 436 535 403T501 314H728Q728 367 698 401T616 436ZM377 252L365 245Q348 234 275 224Q224 218 198 200T172 148Q172 81 260 81Q308 81 342 110T377 187Z" horiz-adv-x="897" unicode="æ"/>
			<glyph d="M294 531Q398 531 464 478T537 335H398Q384 424 293 424Q236 424 204 378T172 256Q172 183 203 138T290 93Q388 93 403 198H540Q527 104 467 47T304 -14L276 -52L278 -54Q294 -47 318 -47Q358 -47 381 -67T404 -124Q404 -169 371 -193T279 -217Q222 -217 163 -195L184 -147Q222 -165 263 -165Q308 -165 308 -131Q308 -116 296 -107T266 -98Q248 -98 228 -106L207 -82L257 -12Q151 0 90 72T30 251Q30 378 102 454T294 531Z" horiz-adv-x="558" unicode="ç"/>
			<glyph d="M288 531Q361 531 418 497T507 398T540 250Q540 242 539 224H166Q168 162 198 127T292 93Q331 93 363 112T405 160H530Q475 -14 288 -14Q217 -13 156 17T60 110T24 258Q24 337 60 402T157 499T288 531ZM283 424Q231 424 201 394T166 314H397Q387 372 360 398T283 424ZM99 731H256L352 589H253Z" horiz-adv-x="567" unicode="è"/>
			<glyph d="M288 531Q361 531 418 497T507 398T540 250Q540 242 539 224H166Q168 162 198 127T292 93Q331 93 363 112T405 160H530Q475 -14 288 -14Q217 -13 156 17T60 110T24 258Q24 337 60 402T157 499T288 531ZM283 424Q231 424 201 394T166 314H397Q387 372 360 398T283 424ZM330 731H487L333 589H234Z" horiz-adv-x="567" unicode="é"/>
			<glyph d="M288 531Q361 531 418 497T507 398T540 250Q540 242 539 224H166Q168 162 198 127T292 93Q331 93 363 112T405 160H530Q475 -14 288 -14Q217 -13 156 17T60 110T24 258Q24 337 60 402T157 499T288 531ZM283 424Q231 424 201 394T166 314H397Q387 372 360 398T283 424ZM222 731H352L462 589H347L285 670L221 589H111Z" horiz-adv-x="567" unicode="ê"/>
			<glyph d="M288 531Q361 531 418 497T507 398T540 250Q540 242 539 224H166Q168 162 198 127T292 93Q331 93 363 112T405 160H530Q475 -14 288 -14Q217 -13 156 17T60 110T24 258Q24 337 60 402T157 499T288 531ZM283 424Q231 424 201 394T166 314H397Q387 372 360 398T283 424ZM115 715H250V598H115ZM321 715H456V598H321Z" horiz-adv-x="567" unicode="ë"/>
			<glyph d="M50 517H192V0H50ZM-61 731H96L192 589H93Z" horiz-adv-x="242" unicode="ì"/>
			<glyph d="M50 517H192V0H50ZM146 731H303L149 589H50Z" horiz-adv-x="242" unicode="í"/>
			<glyph d="M50 517H192V0H50ZM59 731H189L299 589H184L122 670L58 589H-52Z" horiz-adv-x="242" unicode="î"/>
			<glyph d="M50 517H192V0H50ZM-49 715H86V598H-49ZM157 715H292V598H157Z" horiz-adv-x="242" unicode="ï"/>
			<glyph d="M236 743Q304 720 346 693L452 743L498 684L409 643Q488 571 525 481T562 272Q562 145 487 65T294 -14Q175 -14 101 59T27 250Q27 363 90 434T262 506Q348 506 402 456H404Q371 546 307 593L190 537L144 596L236 639L162 673ZM292 411Q231 411 200 367T169 257Q169 177 202 135T294 93Q356 93 388 136T420 257Q420 328 385 369T292 411ZZ" horiz-adv-x="592" unicode="ð"/>
			<glyph d="M343 531Q442 531 486 481T531 322V0H389V293Q389 357 368 388T298 419Q240 419 214 384T188 269V0H46V517H181V445H184Q237 531 343 531ZM221 721Q252 721 296 704Q340 686 364 686Q382 686 392 694T407 721H471Q462 669 435 638T359 607Q326 607 282 623Q237 641 212 641Q179 641 167 599H104Q111 652 143 686T221 721Z" horiz-adv-x="577" unicode="ñ"/>
			<glyph d="M294 531Q418 531 490 455T562 258Q562 135 488 60T294 -14Q171 -14 99 61T27 258Q27 383 100 457T294 531ZM293 424Q233 424 201 381T169 258Q169 179 201 136T294 93Q357 93 388 137T420 258Q420 338 387 381T293 424ZM94 731H251L347 589H248Z" horiz-adv-x="589" unicode="ò"/>
			<glyph d="M294 531Q418 531 490 455T562 258Q562 135 488 60T294 -14Q171 -14 99 61T27 258Q27 383 100 457T294 531ZM293 424Q233 424 201 381T169 258Q169 179 201 136T294 93Q357 93 388 137T420 258Q420 338 387 381T293 424ZM336 731H493L339 589H240Z" horiz-adv-x="589" unicode="ó"/>
			<glyph d="M294 531Q418 531 490 455T562 258Q562 135 488 60T294 -14Q171 -14 99 61T27 258Q27 383 100 457T294 531ZM293 424Q233 424 201 381T169 258Q169 179 201 136T294 93Q357 93 388 137T420 258Q420 338 387 381T293 424ZM235 731H365L475 589H360L298 670L234 589H124Z" horiz-adv-x="589" unicode="ô"/>
			<glyph d="M294 531Q418 531 490 455T562 258Q562 135 488 60T294 -14Q171 -14 99 61T27 258Q27 383 100 457T294 531ZM293 424Q233 424 201 381T169 258Q169 179 201 136T294 93Q357 93 388 137T420 258Q420 338 387 381T293 424ZM232 721Q263 721 307 704Q351 686 375 686Q393 686 403 694T418 721H482Q473 669 446 638T370 607Q337 607 293 623Q248 641 223 641Q190 641 178 599H115Q122 652 154 686T232 721Z" horiz-adv-x="589" unicode="õ"/>
			<glyph d="M294 531Q418 531 490 455T562 258Q562 135 488 60T294 -14Q171 -14 99 61T27 258Q27 383 100 457T294 531ZM293 424Q233 424 201 381T169 258Q169 179 201 136T294 93Q357 93 388 137T420 258Q420 338 387 381T293 424ZM128 715H263V598H128ZM334 715H469V598H334Z" horiz-adv-x="589" unicode="ö"/>
			<glyph d="M293 545Q326 545 351 520T377 460Q377 430 352 403T294 376Q257 376 232 401T208 460Q208 496 233 520T293 545ZM40 306H545V199H40ZM293 129Q328 129 352 104T377 45Q377 13 352 -13T294 -40Q259 -40 233 -14T208 45Q208 80 233 104T293 129Z" horiz-adv-x="584" unicode="÷"/>
			<glyph d="M510 544L547 512L493 451Q562 377 562 258Q562 134 488 60T294 -14Q197 -14 129 36L70 -31L33 1L93 69Q27 141 27 258Q27 383 100 457T294 531Q389 531 457 483ZM293 424Q233 424 201 380T169 258Q169 206 184 172L377 392Q347 424 293 424ZM404 349L209 127Q240 93 294 93Q357 93 388 137T420 258Q420 308 404 349Z" horiz-adv-x="589" unicode="ø"/>
			<glyph d="M46 517H188V224Q188 164 207 131T279 98Q338 98 363 133T389 245V517H531V0H396V72H393Q340 -14 234 -14Q133 -14 89 37T46 196ZM89 731H246L342 589H243Z" horiz-adv-x="577" unicode="ù"/>
			<glyph d="M46 517H188V224Q188 164 207 131T279 98Q338 98 363 133T389 245V517H531V0H396V72H393Q340 -14 234 -14Q133 -14 89 37T46 196ZM330 731H487L333 589H234Z" horiz-adv-x="577" unicode="ú"/>
			<glyph d="M46 517H188V224Q188 164 207 131T279 98Q338 98 363 133T389 245V517H531V0H396V72H393Q340 -14 234 -14Q133 -14 89 37T46 196ZM227 731H357L467 589H352L290 670L226 589H116Z" horiz-adv-x="577" unicode="û"/>
			<glyph d="M46 517H188V224Q188 164 207 131T279 98Q338 98 363 133T389 245V517H531V0H396V72H393Q340 -14 234 -14Q133 -14 89 37T46 196ZM120 715H255V598H120ZM326 715H461V598H326Z" horiz-adv-x="577" unicode="ü"/>
			<glyph d="M-3 517H149L266 163H268L381 517H528L312 -65Q289 -126 248 -154T136 -182Q105 -182 47 -177V-60Q85 -65 122 -65Q152 -65 168 -46T185 0Q185 16 179 32ZM310 731H467L313 589H214Z" horiz-adv-x="525" unicode="ý"/>
			<glyph d="M46 714H188V451H190Q239 531 338 531Q446 531 509 454T572 253Q572 134 510 60T345 -14Q245 -14 190 64H188V-182H46ZM305 424Q247 424 215 379T183 257Q183 178 216 135T307 93Q371 93 400 139T430 257Q430 335 396 379T305 424Z" horiz-adv-x="600" unicode="þ"/>
			<glyph d="M-3 517H149L266 163H268L381 517H528L312 -65Q289 -126 248 -154T136 -182Q105 -182 47 -177V-60Q85 -65 122 -65Q152 -65 168 -46T185 0Q185 16 179 32ZM97 715H232V598H97ZM303 715H438V598H303Z" horiz-adv-x="525" unicode="ÿ"/>
			<glyph d="M265 714H426L693 0H530L476 159H209L153 0H-6ZM343 538L250 276H435L345 538ZM160 884H533V809H160Z" horiz-adv-x="687" unicode="Ā"/>
			<glyph d="M284 531Q510 530 510 384V110Q510 34 528 0H384Q376 24 374 50Q311 -14 200 -14Q119 -14 71 27T24 141Q24 212 69 251Q115 292 236 303Q322 312 345 325T368 367Q368 402 347 419T277 436Q232 436 209 417T182 358H40Q45 443 110 487T284 531ZM368 253Q351 236 282 228Q222 221 194 203T166 147Q166 81 253 81Q367 82 368 198ZM100 694H473V619H100Z" horiz-adv-x="558" unicode="ā"/>
			<glyph d="M265 714H426L693 0H530L476 159H209L153 0H-6ZM343 538L250 276H435L345 538ZM178 921H243Q249 888 276 871T342 854Q437 855 452 921H515Q496 780 337 779Q191 781 178 921Z" horiz-adv-x="687" unicode="Ă"/>
			<glyph d="M284 531Q510 530 510 384V110Q510 34 528 0H384Q376 24 374 50Q311 -14 200 -14Q119 -14 71 27T24 141Q24 212 69 251Q115 292 236 303Q322 312 345 325T368 367Q368 402 347 419T277 436Q232 436 209 417T182 358H40Q45 443 110 487T284 531ZM368 253Q351 236 282 228Q222 221 194 203T166 147Q166 81 253 81Q367 82 368 198ZM120 731H185Q190 700 217 682T284 664Q378 664 394 731H457Q437 589 279 589Q207 589 166 626T120 731Z" horiz-adv-x="558" unicode="ă"/>
			<glyph d="M265 714H426L693 0H610Q569 -43 553 -68T537 -119Q537 -136 547 -146T574 -157Q603 -157 629 -125L674 -151Q631 -217 550 -217Q501 -217 471 -194T441 -134Q441 -100 466 -68T546 0H530L476 159H209L153 0H-6ZM343 538L250 276H435L345 538Z" horiz-adv-x="687" unicode="Ą"/>
			<glyph d="M284 531Q510 531 510 385V110Q510 29 528 0H462Q427 -35 410 -61T394 -118Q394 -136 404 -146T432 -157Q459 -157 487 -125L532 -151Q509 -186 480 -201T408 -217Q359 -217 329 -194T299 -133Q299 -99 321 -68T392 0Q378 28 374 50Q313 -14 200 -14Q120 -14 72 26T24 141Q24 213 70 252T235 303Q311 311 339 323T368 367Q368 408 343 422T277 436Q232 436 209 417T182 358H40Q45 443 110 487T284 531ZM368 253Q358 244 340 238T268 226Q213 218 189 200T166 147Q166 81 253 81Q368 81 368 198Z" horiz-adv-x="558" unicode="ą"/>
			<glyph d="M379 731Q504 731 589 660T687 474H535Q527 527 482 563T379 599Q287 599 236 533T185 354Q185 244 236 179T379 115Q447 115 489 156T541 275H693Q681 139 595 61T379 -17Q222 -17 125 86T28 354Q28 520 124 625T379 731ZM419 921H576L422 779H323Z" horiz-adv-x="712" unicode="Ć"/>
			<glyph d="M294 531Q399 531 465 477T537 335H398Q384 424 293 424Q237 424 204 378T172 256Q172 183 203 138T290 93Q387 93 403 198H540Q526 95 460 40T291 -14Q176 -14 103 59T30 251Q30 379 102 455T294 531ZM339 731H496L342 589H243Z" horiz-adv-x="558" unicode="ć"/>
			<glyph d="M379 731Q504 731 589 660T687 474H535Q527 527 482 563T379 599Q287 599 236 533T185 354Q185 244 236 179T379 115Q447 115 489 156T541 275H693Q681 139 595 61T379 -17Q222 -17 125 86T28 354Q28 520 124 625T379 731ZM313 921H443L553 779H438L376 860L312 779H202Z" horiz-adv-x="712" unicode="Ĉ"/>
			<glyph d="M294 531Q399 531 465 477T537 335H398Q384 424 293 424Q237 424 204 378T172 256Q172 183 203 138T290 93Q387 93 403 198H540Q526 95 460 40T291 -14Q176 -14 103 59T30 251Q30 379 102 455T294 531ZM233 731H363L473 589H358L296 670L232 589H122Z" horiz-adv-x="558" unicode="ĉ"/>
			<glyph d="M379 731Q504 731 589 660T687 474H535Q527 527 482 563T379 599Q287 599 236 533T185 354Q185 244 236 179T379 115Q447 115 489 156T541 275H693Q681 139 595 61T379 -17Q222 -17 125 86T28 354Q28 520 124 625T379 731ZM308 905H443V788H308Z" horiz-adv-x="712" unicode="Ċ"/>
			<glyph d="M294 531Q399 531 465 477T537 335H398Q384 424 293 424Q237 424 204 378T172 256Q172 183 203 138T290 93Q387 93 403 198H540Q526 95 460 40T291 -14Q176 -14 103 59T30 251Q30 379 102 455T294 531ZM229 715H364V598H229Z" horiz-adv-x="558" unicode="ċ"/>
			<glyph d="M379 731Q504 731 589 660T687 474H535Q527 527 482 563T379 599Q287 599 236 533T185 354Q185 244 236 179T379 115Q447 115 489 156T541 275H693Q681 139 595 61T379 -17Q222 -17 125 86T28 354Q28 520 124 625T379 731ZM200 921H315L377 840L441 921H551L440 779H310Z" horiz-adv-x="712" unicode="Č"/>
			<glyph d="M294 531Q399 531 465 477T537 335H398Q384 424 293 424Q237 424 204 378T172 256Q172 183 203 138T290 93Q387 93 403 198H540Q526 95 460 40T291 -14Q176 -14 103 59T30 251Q30 379 102 455T294 531ZM122 731H237L299 650L363 731H473L362 589H232Z" horiz-adv-x="558" unicode="č"/>
			<glyph d="M59 714H365Q517 714 604 620T691 361Q691 190 603 95T369 0H59ZM216 582V132H355Q440 132 487 188T534 347Q534 465 483 523T328 582ZM149 921H264L326 840L390 921H500L389 779H259Z" horiz-adv-x="721" unicode="Ď"/>
			<glyph d="M408 714H550V0H415V66H413Q367 -14 256 -14Q149 -14 86 64T24 263Q24 381 87 456T253 531Q300 531 341 511T406 454H408ZM290 424Q229 424 197 379T166 259Q166 188 199 140T291 93Q352 93 382 137T413 260Q413 338 381 381T290 424ZM626 714H774L693 572H595Z" horiz-adv-x="704" unicode="ď"/>
			<glyph d="M59 714H365Q517 714 604 620T691 361Q691 195 605 97T369 0H59V310H-7V427H59ZM216 582V427H376V310H216V132H356Q441 132 487 189T534 347Q534 465 484 523T327 582Z" horiz-adv-x="721" unicode="Đ"/>
			<glyph d="M408 714H550V642H626V567H550V0H415V66H413Q367 -14 256 -14Q149 -14 86 64T24 263Q24 381 87 456T253 530Q301 530 342 510T406 454H408V567H253V642H408ZM290 424Q229 424 197 379T166 259Q166 184 200 138T291 93Q350 93 381 137T413 260Q413 338 381 381T290 424Z" horiz-adv-x="618" unicode="đ"/>
			<glyph d="M59 714H593V582H216V429H562V307H216V132H601V0H59ZM137 884H510V809H137Z" horiz-adv-x="636" unicode="Ē"/>
			<glyph d="M288 531Q361 531 418 497T507 398T540 250Q540 242 539 224H166Q168 162 198 127T292 93Q331 93 363 112T405 160H530Q475 -14 288 -14Q217 -13 156 17T60 110T24 258Q24 337 60 402T157 499T288 531ZM283 424Q231 424 201 394T166 314H397Q387 372 360 398T283 424ZM99 694H472V619H99Z" horiz-adv-x="567" unicode="ē"/>
			<glyph d="M59 714H593V582H216V429H562V307H216V132H601V0H59ZM151 921H216Q222 888 249 871T315 854Q410 855 425 921H488Q469 780 310 779Q164 781 151 921Z" horiz-adv-x="636" unicode="Ĕ"/>
			<glyph d="M288 531Q361 531 418 497T507 398T540 250Q540 242 539 224H166Q168 162 198 127T292 93Q331 93 363 112T405 160H530Q475 -14 288 -14Q217 -13 156 17T60 110T24 258Q24 337 60 402T157 499T288 531ZM283 424Q231 424 201 394T166 314H397Q387 372 360 398T283 424ZM119 731H184Q189 700 216 682T283 664Q377 664 393 731H456Q436 589 278 589Q206 589 165 626T119 731Z" horiz-adv-x="567" unicode="ĕ"/>
			<glyph d="M59 714H593V582H216V429H562V307H216V132H601V0H59ZM255 905H390V788H255Z" horiz-adv-x="636" unicode="Ė"/>
			<glyph d="M288 531Q361 531 418 497T507 398T540 250Q540 242 539 224H166Q168 162 198 127T292 93Q331 93 363 112T405 160H530Q475 -14 288 -14Q217 -13 156 17T60 110T24 258Q24 337 60 402T157 499T288 531ZM283 424Q231 424 201 394T166 314H397Q387 372 360 398T283 424ZM217 715H352V598H217Z" horiz-adv-x="567" unicode="ė"/>
			<glyph d="M59 714H593V582H216V429H562V307H216V132H601V0H530Q487 -46 472 -70T457 -119Q457 -136 467 -146T494 -157Q523 -157 549 -125L594 -151Q571 -186 542 -201T470 -217Q420 -217 390 -194T361 -134Q361 -70 466 0H59Z" horiz-adv-x="636" unicode="Ę"/>
			<glyph d="M288 531Q362 531 418 497T507 399T540 250Q540 237 539 224H166Q169 160 199 126T293 93Q331 93 363 112T405 160H530Q478 4 326 -12Q290 -51 277 -74T265 -119Q265 -136 275 -146T302 -157Q331 -157 357 -125L402 -151Q379 -186 350 -201T278 -217Q227 -217 198 -194T169 -134Q169 -72 256 -12Q189 -6 135 29T52 125T24 258Q24 338 60 402T157 499T288 531ZM283 424Q234 424 202 395T166 314H397Q387 372 359 398T283 424Z" horiz-adv-x="567" unicode="ę"/>
			<glyph d="M59 714H593V582H216V429H562V307H216V132H601V0H59ZM149 921H264L326 840L390 921H500L389 779H259Z" horiz-adv-x="636" unicode="Ě"/>
			<glyph d="M288 531Q361 531 418 497T507 398T540 250Q540 242 539 224H166Q168 162 198 127T292 93Q331 93 363 112T405 160H530Q475 -14 288 -14Q217 -13 156 17T60 110T24 258Q24 337 60 402T157 499T288 531ZM283 424Q231 424 201 394T166 314H397Q387 372 360 398T283 424ZM111 731H226L288 650L352 731H462L351 589H221Z" horiz-adv-x="567" unicode="ě"/>
			<glyph d="M379 731Q501 731 586 660T680 479H530Q516 539 476 569T379 599Q287 599 236 532T185 354Q185 244 237 179T379 115Q533 115 549 269H391V386H691V0H591L575 81Q500 -17 379 -17Q221 -17 124 87T28 354Q28 520 124 625T379 731ZM313 921H443L553 779H438L376 860L312 779H202Z" horiz-adv-x="733" unicode="Ĝ"/>
			<glyph d="M249 531Q356 531 403 448H405V517H540V32Q540 -80 470 -138T273 -196Q175 -196 111 -149T44 -30H185Q202 -101 291 -101Q346 -101 375 -68T405 24V95H403Q382 57 341 36T248 15Q144 15 85 83T27 275Q27 385 88 458T249 531ZM283 424Q228 424 198 382T169 277Q169 204 199 163T284 122Q339 122 372 161T405 266Q405 344 373 384T283 424ZM246 731H376L486 589H371L309 670L245 589H135Z" horiz-adv-x="586" unicode="ĝ"/>
			<glyph d="M379 731Q501 731 586 660T680 479H530Q516 539 476 569T379 599Q287 599 236 532T185 354Q185 244 237 179T379 115Q533 115 549 269H391V386H691V0H591L575 81Q500 -17 379 -17Q221 -17 124 87T28 354Q28 520 124 625T379 731ZM210 921H275Q281 888 308 871T374 854Q469 855 484 921H547Q528 780 369 779Q223 781 210 921Z" horiz-adv-x="733" unicode="Ğ"/>
			<glyph d="M249 531Q356 531 403 448H405V517H540V32Q540 -80 470 -138T273 -196Q175 -196 111 -149T44 -30H185Q202 -101 291 -101Q346 -101 375 -68T405 24V95H403Q382 57 341 36T248 15Q144 15 85 83T27 275Q27 385 88 458T249 531ZM283 424Q228 424 198 382T169 277Q169 204 199 163T284 122Q339 122 372 161T405 266Q405 344 373 384T283 424ZM121 731H186Q191 700 218 682T285 664Q379 664 395 731H458Q438 589 280 589Q208 589 167 626T121 731Z" horiz-adv-x="586" unicode="ğ"/>
			<glyph d="M379 731Q501 731 586 660T680 479H530Q516 539 476 569T379 599Q287 599 236 532T185 354Q185 244 237 179T379 115Q533 115 549 269H391V386H691V0H591L575 81Q500 -17 379 -17Q221 -17 124 87T28 354Q28 520 124 625T379 731ZM308 905H443V788H308Z" horiz-adv-x="733" unicode="Ġ"/>
			<glyph d="M249 531Q356 531 403 448H405V517H540V32Q540 -80 470 -138T273 -196Q175 -196 111 -149T44 -30H185Q202 -101 291 -101Q346 -101 375 -68T405 24V95H403Q382 57 341 36T248 15Q144 15 85 83T27 275Q27 385 88 458T249 531ZM283 424Q228 424 198 382T169 277Q169 204 199 163T284 122Q339 122 372 161T405 266Q405 344 373 384T283 424ZM233 715H368V598H233Z" horiz-adv-x="586" unicode="ġ"/>
			<glyph d="M379 731Q501 731 586 660T680 479H530Q516 539 476 569T379 599Q287 599 236 532T185 354Q185 244 237 179T379 115Q533 115 549 269H391V386H691V0H591L575 81Q500 -17 379 -17Q221 -17 124 87T28 354Q28 520 124 625T379 731ZM299 -50H444V-122Q444 -159 431 -178T393 -207T315 -217H309V-180Q339 -177 351 -167T366 -143H299Z" horiz-adv-x="733" unicode="Ģ"/>
			<glyph d="M249 531Q356 531 403 448H405V517H540V32Q540 -80 470 -138T273 -196Q175 -196 111 -149T44 -30H185Q202 -101 291 -101Q346 -101 375 -68T405 24V95H403Q382 57 341 36T248 15Q144 15 85 83T27 275Q27 385 88 458T249 531ZM283 424Q228 424 198 382T169 277Q169 204 199 163T284 122Q339 122 372 161T405 266Q405 344 373 384T283 424ZM355 788H362V751Q340 749 325 741T305 714H372V621H227V691Q227 729 240 749T279 778T355 788Z" horiz-adv-x="586" unicode="ģ"/>
			<glyph d="M59 714H216V440H505V714H662V0H505V308H216V0H59ZM298 921H428L538 779H423L361 860L297 779H187Z" horiz-adv-x="721" unicode="Ĥ"/>
			<glyph d="M50 714H192V445H195Q219 485 260 508T347 531Q446 531 490 481T535 323V0H393V294Q393 357 372 388T302 419Q245 419 218 384T192 271V0H50ZM225 921H355L465 779H350L288 860L224 779H114Z" horiz-adv-x="581" unicode="ĥ"/>
			<glyph d="M59 714H216V571H505V714H662V0H505V298H216V0H59ZM216 496V420H505V496Z" horiz-adv-x="721" unicode="Ħ"/>
			<glyph d="M76 714H218V642H359V567H218V445H221Q245 484 285 507T373 531Q471 531 516 481T561 322V0H419V294Q419 357 398 388T328 419Q266 419 242 381T218 272V0H76V567H-14V642H76Z" horiz-adv-x="607" unicode="ħ"/>
			<glyph d="M59 714H216V0H59ZM75 911Q106 911 155 892Q196 876 218 876Q235 876 245 883T261 911H325Q313 851 285 824T213 797Q178 797 136 813Q90 831 66 831Q32 831 21 789H-42Q-35 843 -2 877T75 911Z" horiz-adv-x="275" unicode="Ĩ"/>
			<glyph d="M50 517H192V0H50ZM55 721Q86 721 130 704Q174 686 198 686Q216 686 226 694T241 721H305Q296 669 269 638T193 607Q160 607 116 623Q71 641 46 641Q13 641 1 599H-62Q-55 652 -23 686T55 721Z" horiz-adv-x="242" unicode="ĩ"/>
			<glyph d="M59 714H216V0H59ZM-47 884H326V809H-47Z" horiz-adv-x="275" unicode="Ī"/>
			<glyph d="M50 517H192V0H50ZM-64 694H309V619H-64Z" horiz-adv-x="242" unicode="ī"/>
			<glyph d="M50 714H207V0Q161 -37 141 -65T121 -121Q121 -157 153 -157Q178 -157 199 -129L240 -155Q218 -186 193 -201T131 -217Q84 -217 56 -194T29 -134Q29 -66 139 0H50Z" horiz-adv-x="275" unicode="Į"/>
			<glyph d="M37 714H179V597H37ZM37 517H179V0Q137 -40 119 -66T102 -121Q102 -157 134 -157Q159 -157 180 -129L221 -155Q199 -185 174 -201T112 -217Q65 -217 37 -194T10 -134Q10 -66 117 0H37Z" horiz-adv-x="242" unicode="į"/>
			<glyph d="M59 714H216V0H59ZM72 905H207V788H72Z" horiz-adv-x="275" unicode="İ"/>
			<glyph d="M50 517H192V0H50Z" horiz-adv-x="242" unicode="ı"/>
			<glyph d="M59 714H216V0H59ZM619 714H776V224Q776 -17 540 -17Q433 -17 368 41T303 202V266H445V231Q445 168 468 141T536 115Q579 115 599 139T619 226Z" horiz-adv-x="828" unicode="Ĳ"/>
			<glyph d="M50 714H192V597H50ZM50 517H192V0H50ZM305 714H447V597H305ZM305 517H447V-29Q447 -85 430 -117T376 -165T266 -182Q238 -182 219 -178V-61Q231 -65 251 -65Q282 -65 294 -52T305 -18Z" horiz-adv-x="494" unicode="ĳ"/>
			<glyph d="M330 714H487V224Q487 -17 251 -17Q144 -17 79 41T14 202V266H156V231Q156 168 179 141T247 115Q290 115 310 139T330 226ZM331 921H461L571 779H456L394 860L330 779H220Z" horiz-adv-x="546" unicode="Ĵ"/>
			<glyph d="M59 517H201V-27Q201 -84 184 -116T130 -165T20 -182Q-7 -182 -27 -178V-61Q-16 -65 4 -65Q35 -65 47 -53T59 -18ZM63 731H193L303 589H188L126 670L62 589H-48Z" horiz-adv-x="262" unicode="ĵ"/>
			<glyph d="M59 714H216V418L495 714H691L412 432L718 0H521L306 321L216 230V0H59ZM287 -50H432V-122Q432 -159 419 -178T381 -207T303 -217H297V-180Q327 -177 339 -167T354 -143H287Z" horiz-adv-x="712" unicode="Ķ"/>
			<glyph d="M59 714H201V331L380 517H548L353 327L570 0H398L256 231L201 178V0H59ZM227 -50H372V-122Q372 -159 359 -178T321 -207T243 -217H237V-180Q267 -177 279 -167T294 -143H227Z" horiz-adv-x="562" unicode="ķ"/>
			<glyph d="M59 714H216V132H564V0H59ZM183 921H340L186 779H87Z" horiz-adv-x="578" unicode="Ĺ"/>
			<glyph d="M50 714H192V0H50ZM146 921H303L149 779H50Z" horiz-adv-x="242" unicode="ĺ"/>
			<glyph d="M59 714H216V132H564V0H59ZM234 -50H379V-122Q379 -159 366 -178T328 -207T250 -217H244V-180Q274 -177 286 -167T301 -143H234Z" horiz-adv-x="578" unicode="Ļ"/>
			<glyph d="M50 714H192V0H50ZM48 -50H193V-122Q193 -159 180 -178T142 -207T64 -217H58V-180Q88 -177 100 -167T115 -143H48Z" horiz-adv-x="242" unicode="ļ"/>
			<glyph d="M59 714H216V132H564V0H59ZM344 714H492L411 572H313Z" horiz-adv-x="578" unicode="Ľ"/>
			<glyph d="M50 714H192V0H50ZM268 714H416L335 572H237Z" horiz-adv-x="347" unicode="ľ"/>
			<glyph d="M59 714H216V132H564V0H59ZM333 517H468V400H333Z" horiz-adv-x="578" unicode="Ŀ"/>
			<glyph d="M50 714H192V0H50ZM252 517H387V400H252Z" horiz-adv-x="419" unicode="ŀ"/>
			<glyph d="M59 714H216V436L427 584V472L216 324V132H564V0H59V214L-21 158V270L59 326Z" horiz-adv-x="578" unicode="Ł"/>
			<glyph d="M50 714H192V500L259 553V451L192 398V0H50V286L-17 233V335L50 388Z" horiz-adv-x="242" unicode="ł"/>
			<glyph d="M59 714H215L513 235H515V714H662V0H505L208 478H206V0H59ZM395 921H552L398 779H299Z" horiz-adv-x="721" unicode="Ń"/>
			<glyph d="M343 531Q442 531 486 481T531 322V0H389V293Q389 357 368 388T298 419Q240 419 214 384T188 269V0H46V517H181V445H184Q237 531 343 531ZM321 731H478L324 589H225Z" horiz-adv-x="577" unicode="ń"/>
			<glyph d="M59 714H215L513 235H515V714H662V0H505L208 478H206V0H59ZM292 -50H437V-122Q437 -159 424 -178T386 -207T308 -217H302V-180Q332 -177 344 -167T359 -143H292Z" horiz-adv-x="721" unicode="Ņ"/>
			<glyph d="M343 531Q442 531 486 481T531 322V0H389V293Q389 357 368 388T298 419Q240 419 214 384T188 269V0H46V517H181V445H184Q237 531 343 531ZM213 -50H358V-122Q358 -159 345 -178T307 -207T229 -217H223V-180Q253 -177 265 -167T280 -143H213Z" horiz-adv-x="577" unicode="ņ"/>
			<glyph d="M59 714H215L513 235H515V714H662V0H505L208 478H206V0H59ZM179 921H294L356 840L420 921H530L419 779H289Z" horiz-adv-x="721" unicode="Ň"/>
			<glyph d="M343 531Q442 531 486 481T531 322V0H389V293Q389 357 368 388T298 419Q240 419 214 384T188 269V0H46V517H181V445H184Q237 531 343 531ZM113 731H228L290 650L354 731H464L353 589H223Z" horiz-adv-x="577" unicode="ň"/>
			<glyph d="M355 531Q454 531 498 481T543 322V0H401V293Q401 357 380 388T310 419Q252 419 226 384T200 269V0H58V517H193V445H196Q249 531 355 531ZM-20 807H125V735Q125 698 112 679T74 650T-4 640H-10V677Q20 680 32 690T47 714H-20Z" horiz-adv-x="589" unicode="ŉ"/>
			<glyph d="M379 731Q537 731 633 626T730 354Q730 191 633 87T379 -17Q221 -17 124 87T28 354Q28 520 125 625T379 731ZM378 599Q288 599 236 534T185 354Q185 246 236 180T379 115Q469 115 521 179T573 354Q573 469 521 534T378 599ZM195 884H568V809H195Z" horiz-adv-x="758" unicode="Ō"/>
			<glyph d="M294 531Q418 531 490 455T562 258Q562 135 488 60T294 -14Q171 -14 99 61T27 258Q27 383 100 457T294 531ZM293 424Q233 424 201 381T169 258Q169 179 201 136T294 93Q357 93 388 137T420 258Q420 338 387 381T293 424ZM112 694H485V619H112Z" horiz-adv-x="589" unicode="ō"/>
			<glyph d="M379 731Q537 731 633 626T730 354Q730 191 633 87T379 -17Q221 -17 124 87T28 354Q28 520 125 625T379 731ZM378 599Q288 599 236 534T185 354Q185 246 236 180T379 115Q469 115 521 179T573 354Q573 469 521 534T378 599ZM215 921H280Q286 888 313 871T379 854Q474 855 489 921H552Q533 780 374 779Q228 781 215 921Z" horiz-adv-x="758" unicode="Ŏ"/>
			<glyph d="M294 531Q418 531 490 455T562 258Q562 135 488 60T294 -14Q171 -14 99 61T27 258Q27 383 100 457T294 531ZM293 424Q233 424 201 381T169 258Q169 179 201 136T294 93Q357 93 388 137T420 258Q420 338 387 381T293 424ZM132 731H197Q202 700 229 682T296 664Q390 664 406 731H469Q449 589 291 589Q219 589 178 626T132 731Z" horiz-adv-x="589" unicode="ŏ"/>
			<glyph d="M379 731Q537 731 633 626T730 354Q730 191 633 87T379 -17Q221 -17 124 87T28 354Q28 520 125 625T379 731ZM378 599Q288 599 236 534T185 354Q185 246 236 180T379 115Q469 115 521 179T573 354Q573 469 521 534T378 599ZM315 921H472L323 779H224ZM522 921H679L530 779H431Z" horiz-adv-x="758" unicode="Ő"/>
			<glyph d="M294 531Q418 531 490 455T562 258Q562 135 488 60T294 -14Q171 -14 99 61T27 258Q27 383 100 457T294 531ZM293 424Q233 424 201 381T169 258Q169 179 201 136T294 93Q357 93 388 137T420 258Q420 338 387 381T293 424ZM231 731H388L239 589H140ZM438 731H595L446 589H347Z" horiz-adv-x="589" unicode="ő"/>
			<glyph d="M363 731Q480 731 532 663H534V714H1034V582H680V429H1004V307H680V132H1041V0H534V54H532Q500 19 454 1T360 -17Q212 -17 120 88T28 353Q28 456 70 543T189 681T363 731ZM373 599Q283 599 234 532T185 355Q185 245 235 180T371 115Q442 115 485 159T528 277V449Q528 516 484 557T373 599Z" horiz-adv-x="1073" unicode="Œ"/>
			<glyph d="M281 531Q402 531 459 449Q483 485 532 508T633 531Q752 531 818 451T886 224H517Q517 163 549 128T640 93Q716 93 744 164H882Q856 78 791 32T640 -14Q578 -14 529 8T453 74Q427 30 377 8T270 -14Q200 -14 145 19T58 116T27 261Q27 341 62 405T155 500T281 531ZM281 424Q229 424 199 379T169 256Q169 185 197 139T279 93Q335 93 364 135T393 260Q393 340 365 382T281 424ZM629 424Q580 424 550 394T517 314H744Q742 366 713 395T629 424Z" horiz-adv-x="913" unicode="œ"/>
			<glyph d="M59 714H444Q534 714 593 658T653 517Q653 383 540 338V336Q578 325 599 299T632 240T646 131Q650 33 674 0H517Q504 33 497 124Q489 220 462 249T374 279H216V0H59ZM216 592V391H389Q439 391 467 413T496 493Q496 547 468 569T388 592ZM345 921H502L348 779H249Z" horiz-adv-x="693" unicode="Ŕ"/>
			<glyph d="M348 531Q366 531 379 526V394Q356 399 328 399Q188 399 188 233V0H46V517H181V421H183Q204 471 249 501T348 531ZM176 731H333L179 589H80Z" horiz-adv-x="373" unicode="ŕ"/>
			<glyph d="M59 714H444Q534 714 593 658T653 517Q653 383 540 338V336Q578 325 599 299T632 240T646 131Q650 33 674 0H517Q504 33 497 124Q489 220 462 249T374 279H216V0H59ZM216 592V391H389Q439 391 467 413T496 493Q496 547 468 569T388 592ZM287 -50H432V-122Q432 -159 419 -178T381 -207T303 -217H297V-180Q327 -177 339 -167T354 -143H287Z" horiz-adv-x="693" unicode="Ŗ"/>
			<glyph d="M348 531Q366 531 379 526V394Q356 399 328 399Q188 399 188 233V0H46V517H181V421H183Q204 471 249 501T348 531ZM46 -50H191V-122Q191 -159 178 -178T140 -207T62 -217H56V-180Q86 -177 98 -167T113 -143H46Z" horiz-adv-x="373" unicode="ŗ"/>
			<glyph d="M59 714H444Q534 714 593 658T653 517Q653 383 540 338V336Q578 325 599 299T632 240T646 131Q650 33 674 0H517Q504 33 497 124Q489 220 462 249T374 279H216V0H59ZM216 592V391H389Q439 391 467 413T496 493Q496 547 468 569T388 592ZM151 921H266L328 840L392 921H502L391 779H261Z" horiz-adv-x="693" unicode="Ř"/>
			<glyph d="M348 531Q366 531 379 526V394Q356 399 328 399Q188 399 188 233V0H46V517H181V421H183Q204 471 249 501T348 531ZM29 731H144L206 650L270 731H380L269 589H139Z" horiz-adv-x="373" unicode="ř"/>
			<glyph d="M304 731Q435 731 512 671T590 501H438Q435 555 401 582T298 609Q249 609 219 587T189 528Q189 497 207 483T260 458T379 426Q468 404 516 378T589 311T614 212Q614 144 578 91T473 10T317 -17Q184 -17 98 49T13 232V237H165Q165 174 208 139T322 105Q385 105 423 127T462 194Q462 223 441 243T385 275T267 307Q171 331 127 358T60 423T37 516Q37 583 75 633T176 707T304 731ZM357 921H514L360 779H261Z" horiz-adv-x="629" unicode="Ś"/>
			<glyph d="M258 531Q362 531 420 489T486 366H351Q348 403 324 419T254 436Q214 436 194 424T175 388Q175 370 188 358T227 337T286 322Q383 303 423 283T481 235T500 166Q500 79 436 32T264 -14Q150 -14 86 35T21 168H156Q156 128 187 104T265 81Q305 81 331 98T358 147Q358 167 341 180T295 203T202 226Q152 236 113 253T53 297T33 365Q33 416 57 454T132 511T258 531ZM300 731H457L303 589H204Z" horiz-adv-x="521" unicode="ś"/>
			<glyph d="M304 731Q435 731 512 671T590 501H438Q435 555 401 582T298 609Q249 609 219 587T189 528Q189 497 207 483T260 458T379 426Q468 404 516 378T589 311T614 212Q614 144 578 91T473 10T317 -17Q184 -17 98 49T13 232V237H165Q165 174 208 139T322 105Q385 105 423 127T462 194Q462 223 441 243T385 275T267 307Q171 331 127 358T60 423T37 516Q37 583 75 633T176 707T304 731ZM256 921H386L496 779H381L319 860L255 779H145Z" horiz-adv-x="629" unicode="Ŝ"/>
			<glyph d="M258 531Q362 531 420 489T486 366H351Q348 403 324 419T254 436Q214 436 194 424T175 388Q175 370 188 358T227 337T286 322Q383 303 423 283T481 235T500 166Q500 79 436 32T264 -14Q150 -14 86 35T21 168H156Q156 128 187 104T265 81Q305 81 331 98T358 147Q358 167 341 180T295 203T202 226Q152 236 113 253T53 297T33 365Q33 416 57 454T132 511T258 531ZM203 731H333L443 589H328L266 670L202 589H92Z" horiz-adv-x="521" unicode="ŝ"/>
			<glyph d="M304 731Q437 731 513 670T590 501H438Q432 609 298 609Q249 609 219 587T189 528Q189 493 218 476T317 442L423 415Q614 367 614 212Q614 108 535 46T322 -17L296 -52L298 -54Q314 -47 338 -47Q376 -47 400 -66T424 -124Q424 -169 391 -193T298 -217Q243 -217 183 -195L204 -147Q242 -165 282 -165Q328 -165 328 -131Q328 -116 316 -107T285 -98Q268 -98 248 -106L227 -82L275 -15Q150 -2 81 63T13 230V237H165Q165 174 206 139T322 105Q387 105 424 128T462 194Q462 232 428 255T268 307T89 386T37 515Q37 612 113 671T304 731Z" horiz-adv-x="629" unicode="Ş"/>
			<glyph d="M258 531Q361 531 420 489T486 366H351Q345 436 254 436Q175 436 175 388Q175 359 207 345T300 319Q400 297 434 277T484 230T500 166Q500 81 440 34T271 -14L243 -52L245 -54Q261 -47 285 -47Q324 -47 347 -67T371 -124Q371 -168 338 -192T245 -217Q188 -217 130 -195L151 -147Q189 -165 230 -165Q275 -165 275 -131Q275 -114 262 -106T233 -98Q215 -98 195 -106L174 -82L224 -12Q27 6 21 168H156Q156 127 187 104T265 81Q301 81 329 97T358 146Q358 176 318 193T202 226Q111 245 72 277T33 365Q33 448 91 489T258 531Z" horiz-adv-x="521" unicode="ş"/>
			<glyph d="M304 731Q435 731 512 671T590 501H438Q435 555 401 582T298 609Q249 609 219 587T189 528Q189 497 207 483T260 458T379 426Q468 404 516 378T589 311T614 212Q614 144 578 91T473 10T317 -17Q184 -17 98 49T13 232V237H165Q165 174 208 139T322 105Q385 105 423 127T462 194Q462 223 441 243T385 275T267 307Q171 331 127 358T60 423T37 516Q37 583 75 633T176 707T304 731ZM145 921H260L322 840L386 921H496L385 779H255Z" horiz-adv-x="629" unicode="Š"/>
			<glyph d="M258 531Q362 531 420 489T486 366H351Q348 403 324 419T254 436Q214 436 194 424T175 388Q175 370 188 358T227 337T286 322Q383 303 423 283T481 235T500 166Q500 79 436 32T264 -14Q150 -14 86 35T21 168H156Q156 128 187 104T265 81Q305 81 331 98T358 147Q358 167 341 180T295 203T202 226Q152 236 113 253T53 297T33 365Q33 416 57 454T132 511T258 531ZM88 731H203L265 650L329 731H439L328 589H198Z" horiz-adv-x="521" unicode="š"/>
			<glyph d="M14 714H599V582H385V0H228V582H14ZM233 -50H378V-122Q378 -159 365 -178T327 -207T249 -217H243V-180Q273 -177 285 -167T300 -143H233Z" horiz-adv-x="613" unicode="Ţ"/>
			<glyph d="M84 672H226V517H330V422H226V166Q226 130 238 118T286 106Q312 106 330 110V-1Q300 -6 246 -6Q164 -6 124 22T84 119V422H-2V517H84ZM133 -50H278V-122Q278 -159 265 -178T227 -207T149 -217H143V-180Q173 -177 185 -167T200 -143H133Z" horiz-adv-x="336" unicode="ţ"/>
			<glyph d="M14 714H599V582H385V0H228V582H14ZM130 921H245L307 840L371 921H481L370 779H240Z" horiz-adv-x="613" unicode="Ť"/>
			<glyph d="M84 672H226V517H330V422H226V166Q226 130 238 118T286 106Q312 106 330 110V-1Q300 -6 246 -6Q164 -6 124 22T84 119V422H-2V517H84ZM354 714H502L421 572H323Z" horiz-adv-x="428" unicode="ť"/>
			<glyph d="M14 714H599V582H385V467H546V392H385V0H228V392H73V467H228V582H14Z" horiz-adv-x="613" unicode="Ŧ"/>
			<glyph d="M84 672H226V517H330V422H226V346H338V271H226V167Q226 128 238 117T285 106Q312 106 330 110V-1Q300 -6 248 -6Q158 -6 121 24T84 119V271H-16V346H84V422H-2V517H84Z" horiz-adv-x="336" unicode="ŧ"/>
			<glyph d="M56 714H213V267Q213 188 248 151T360 115Q442 115 475 151T508 267V714H665V267Q665 133 588 58T360 -17Q205 -17 130 58T56 267ZM297 911Q328 911 377 892Q418 876 440 876Q457 876 467 883T483 911H547Q535 851 507 824T435 797Q400 797 358 813Q312 831 288 831Q254 831 243 789H180Q187 843 219 877T297 911Z" horiz-adv-x="721" unicode="Ũ"/>
			<glyph d="M46 517H188V224Q188 164 207 131T279 98Q338 98 363 133T389 245V517H531V0H396V72H393Q340 -14 234 -14Q133 -14 89 37T46 196ZM224 721Q255 721 299 704Q343 686 367 686Q385 686 395 694T410 721H474Q465 669 438 638T362 607Q329 607 285 623Q240 641 215 641Q182 641 170 599H107Q114 652 146 686T224 721Z" horiz-adv-x="577" unicode="ũ"/>
			<glyph d="M56 714H213V267Q213 188 248 151T360 115Q442 115 475 151T508 267V714H665V267Q665 133 588 58T360 -17Q205 -17 130 58T56 267ZM176 884H549V809H176Z" horiz-adv-x="721" unicode="Ū"/>
			<glyph d="M46 517H188V224Q188 164 207 131T279 98Q338 98 363 133T389 245V517H531V0H396V72H393Q340 -14 234 -14Q133 -14 89 37T46 196ZM105 694H478V619H105Z" horiz-adv-x="577" unicode="ū"/>
			<glyph d="M56 714H213V267Q213 188 248 151T360 115Q442 115 475 151T508 267V714H665V267Q665 133 588 58T360 -17Q205 -17 130 58T56 267ZM192 921H257Q263 888 290 871T356 854Q451 855 466 921H529Q510 780 351 779Q205 781 192 921Z" horiz-adv-x="721" unicode="Ŭ"/>
			<glyph d="M46 517H188V224Q188 164 207 131T279 98Q338 98 363 133T389 245V517H531V0H396V72H393Q340 -14 234 -14Q133 -14 89 37T46 196ZM124 731H189Q194 700 221 682T288 664Q382 664 398 731H461Q441 589 283 589Q211 589 170 626T124 731Z" horiz-adv-x="577" unicode="ŭ"/>
			<glyph d="M56 714H213V267Q213 188 248 151T360 115Q442 115 475 151T508 267V714H665V267Q665 133 588 58T360 -17Q205 -17 130 58T56 267ZM360 985Q396 985 423 969T466 927T482 865Q482 831 465 803T420 760T359 745Q327 745 299 759T254 802T237 865Q237 900 255 929T301 971T360 985ZM359 932Q331 932 313 913T296 865Q296 836 313 817T359 798Q388 798 405 816T423 865Q423 894 406 913T359 932Z" horiz-adv-x="721" unicode="Ů"/>
			<glyph d="M46 517H188V224Q188 164 207 131T279 98Q338 98 363 133T389 245V517H531V0H396V72H393Q340 -14 234 -14Q133 -14 89 37T46 196ZM291 804Q327 804 354 788T397 746T413 684Q413 650 396 622T351 579T290 564Q258 564 230 578T185 621T168 684Q168 719 186 748T232 790T291 804ZM290 751Q262 751 244 732T227 684Q227 655 244 636T290 617Q319 617 336 635T354 684Q354 713 337 732T290 751Z" horiz-adv-x="577" unicode="ů"/>
			<glyph d="M56 714H213V267Q213 188 248 151T360 115Q442 115 475 151T508 267V714H665V267Q665 133 588 58T360 -17Q205 -17 130 58T56 267ZM293 921H450L301 779H202ZM500 921H657L508 779H409Z" horiz-adv-x="721" unicode="Ű"/>
			<glyph d="M46 517H188V224Q188 164 207 131T279 98Q338 98 363 133T389 245V517H531V0H396V72H393Q340 -14 234 -14Q133 -14 89 37T46 196ZM223 731H380L231 589H132ZM430 731H587L438 589H339Z" horiz-adv-x="577" unicode="ű"/>
			<glyph d="M56 714H213V266Q213 188 248 151T360 115Q442 115 475 152T508 267V714H665V266Q665 142 598 67T398 -16Q370 -47 355 -69T340 -119Q340 -136 350 -146T377 -157Q406 -157 432 -125L477 -151Q454 -186 425 -201T353 -217Q303 -217 273 -194T244 -134Q244 -74 326 -16Q188 -8 122 67T56 268Z" horiz-adv-x="721" unicode="Ų"/>
			<glyph d="M46 517H188V225Q188 161 208 129T279 98Q338 98 363 134T389 244V517H531V0H466Q431 -35 415 -62T400 -118Q400 -137 411 -147T438 -157Q465 -157 493 -125L538 -151Q515 -185 486 -201T414 -217Q365 -217 335 -194T305 -133Q305 -99 326 -68T396 0V72H393Q367 28 324 7T234 -14Q138 -14 92 35T46 195Z" horiz-adv-x="577" unicode="ų"/>
			<glyph d="M-7 714H150L263 228H265L389 714H536L658 222H660L777 714H931L739 0H583L462 486H460L341 0H182ZM402 921H532L642 779H527L465 860L401 779H291Z" horiz-adv-x="924" unicode="Ŵ"/>
			<glyph d="M2 517H152L247 166H249L335 517H473L561 167H563L658 517H804L641 0H495L403 347H401L313 0H166ZM342 731H472L582 589H467L405 670L341 589H231Z" horiz-adv-x="806" unicode="ŵ"/>
			<glyph d="M-19 714H158L325 432L491 714H666L401 274V0H244V278ZM265 921H395L505 779H390L328 860L264 779H154Z" horiz-adv-x="647" unicode="Ŷ"/>
			<glyph d="M-3 517H149L266 163H268L381 517H528L312 -65Q289 -126 248 -154T136 -182Q105 -182 47 -177V-60Q85 -65 122 -65Q152 -65 168 -46T185 0Q185 16 179 32ZM206 731H336L446 589H331L269 670L205 589H95Z" horiz-adv-x="525" unicode="ŷ"/>
			<glyph d="M-19 714H158L325 432L491 714H666L401 274V0H244V278ZM155 905H290V788H155ZM361 905H496V788H361Z" horiz-adv-x="647" unicode="Ÿ"/>
			<glyph d="M56 714H618V590L235 132H628V0H26V124L409 582H56ZM367 921H524L370 779H271Z" horiz-adv-x="652" unicode="Ź"/>
			<glyph d="M37 517H473V410L204 107H492V0H17V107L286 410H37ZM298 731H455L301 589H202Z" horiz-adv-x="504" unicode="ź"/>
			<glyph d="M56 714H618V590L235 132H628V0H26V124L409 582H56ZM270 905H405V788H270Z" horiz-adv-x="652" unicode="Ż"/>
			<glyph d="M37 517H473V410L204 107H492V0H17V107L286 410H37ZM192 715H327V598H192Z" horiz-adv-x="504" unicode="ż"/>
			<glyph d="M56 714H618V590L235 132H628V0H26V124L409 582H56ZM159 921H274L336 840L400 921H510L399 779H269Z" horiz-adv-x="652" unicode="Ž"/>
			<glyph d="M37 517H473V410L204 107H492V0H17V107L286 410H37ZM82 731H197L259 650L323 731H433L322 589H192Z" horiz-adv-x="504" unicode="ž"/>
			<glyph d="M428 731Q471 731 503 724L485 617Q470 624 447 624Q409 624 392 611T369 562L344 432H442L426 337H326L270 27Q249 -90 202 -130T59 -170Q8 -170 -13 -167L6 -60Q21 -63 51 -63Q79 -63 95 -48T118 8L181 337H89L107 432H198L222 559Q240 654 285 692T428 731Z" horiz-adv-x="540" unicode="ƒ"/>
			<glyph d="M304 731Q435 731 512 671T590 501H438Q435 555 401 582T298 609Q249 609 219 587T189 528Q189 497 207 483T260 458T379 426Q468 404 516 378T589 311T614 212Q614 144 578 91T473 10T317 -17Q184 -17 98 49T13 232V237H165Q165 174 208 139T322 105Q385 105 423 127T462 194Q462 223 441 243T385 275T267 307Q171 331 127 358T60 423T37 516Q37 583 75 633T176 707T304 731ZM238 -50H383V-122Q383 -159 370 -178T332 -207T254 -217H248V-180Q278 -177 290 -167T305 -143H238Z" horiz-adv-x="629" unicode="Ș"/>
			<glyph d="M258 531Q362 531 420 489T486 366H351Q348 403 324 419T254 436Q214 436 194 424T175 388Q175 370 188 358T227 337T286 322Q383 303 423 283T481 235T500 166Q500 79 436 32T264 -14Q150 -14 86 35T21 168H156Q156 128 187 104T265 81Q305 81 331 98T358 147Q358 167 341 180T295 203T202 226Q152 236 113 253T53 297T33 365Q33 416 57 454T132 511T258 531ZM191 -50H336V-122Q336 -159 323 -178T285 -207T207 -217H201V-180Q231 -177 243 -167T258 -143H191Z" horiz-adv-x="521" unicode="ș"/>
			<glyph d="M4 714H589V582H375V0H218V582H4ZM222 -50H367V-122Q367 -159 354 -178T316 -207T238 -217H232V-180Q262 -177 274 -167T289 -143H222Z" horiz-adv-x="591" unicode="Ț"/>
			<glyph d="M84 672H226V517H330V422H226V166Q226 130 238 118T286 106Q312 106 330 110V-1Q300 -6 246 -6Q164 -6 124 22T84 119V422H-2V517H84ZM133 -50H278V-122Q278 -159 265 -178T227 -207T149 -217H143V-180Q173 -177 185 -167T200 -143H133Z" horiz-adv-x="336" unicode="ț"/>
			<glyph d="M57 731H187L297 589H182L120 670L56 589H-54Z" unicode="ˆ"/>
			<glyph d="M-54 731H61L123 650L187 731H297L186 589H56Z" unicode="ˇ"/>
			<glyph d="M-65 694H308V619H-65Z" unicode="ˉ"/>
			<glyph d="M-47 731H18Q23 700 50 682T117 664Q211 664 227 731H290Q270 589 112 589Q40 589 0 626T-47 731Z" unicode="˘"/>
			<glyph d="M54 715H189V598H54Z" unicode="˙"/>
			<glyph d="M122 804Q158 804 185 788T228 746T244 684Q244 650 227 622T182 579T121 564Q89 564 61 578T16 621T-1 684Q-1 719 17 748T63 790T122 804ZM121 751Q93 751 75 732T58 684Q58 655 75 636T121 617Q150 617 167 635T185 684Q185 713 168 732T121 751Z" unicode="˚"/>
			<glyph d="M106 0H170Q140 -32 118 -61T97 -118Q97 -138 108 -147T134 -157Q163 -157 189 -125L234 -151Q213 -184 184 -200T110 -217Q60 -217 30 -194T1 -134Q1 -102 25 -70T106 0Z" unicode="˛"/>
			<glyph d="M55 721Q86 721 130 704Q174 686 198 686Q216 686 226 694T241 721H305Q296 669 269 638T193 607Q160 607 116 623Q71 641 46 641Q13 641 1 599H-62Q-55 652 -23 686T55 721Z" unicode="˜"/>
			<glyph d="M27 731H184L35 589H-64ZM234 731H391L242 589H143Z" unicode="˝"/>
			<glyph d="M263 712H406L684 0H2ZM334 561L183 124H496Z" horiz-adv-x="686" unicode="Δ"/>
			<glyph d="M373 721Q517 721 610 633T704 411Q704 315 655 241T525 150V118H703V0H416V204Q486 218 522 271T559 398Q559 482 507 539T374 597Q291 597 238 539T186 395Q186 323 220 272T327 204V0H40V118H218V150Q136 173 88 244T40 409Q40 500 84 571T204 682T373 721Z" horiz-adv-x="752" unicode="Ω"/>
			<glyph d="M46 517H188V225Q188 161 208 129T279 98Q338 98 363 133T389 245V517H531V0H396V72H393Q335 -14 263 -14Q219 -14 188 10V-182H46Z" horiz-adv-x="577" unicode="μ"/>
			<glyph d="M-8 489H575V371H495V161Q495 125 504 113T534 101Q545 101 555 104T577 112V17Q551 5 530 -1T481 -8Q422 -8 394 23T367 126V371H191V0H62V371H-8Z" horiz-adv-x="593" unicode="π"/>
			<glyph d="M-8 334H492V212H-8Z" horiz-adv-x="484" unicode="–"/>
			<glyph d="M122 334H862V212H122Z" horiz-adv-x="984" unicode="—"/>
			<glyph d="M232 714V648Q166 627 166 549V547H232V393H90V552Q90 615 130 660T232 714Z" horiz-adv-x="323" unicode="‘"/>
			<glyph d="M90 714H232V555Q232 492 192 446T90 393V459Q156 481 156 558V560H90Z" horiz-adv-x="323" unicode="’"/>
			<glyph d="M90 154H232V-6Q232 -68 192 -113T90 -167V-101Q156 -80 156 -2V0H90Z" horiz-adv-x="323" unicode="‚"/>
			<glyph d="M232 714V648Q197 636 181 612T166 547H232V393H90V553Q90 615 130 661T232 714ZM445 714V648Q409 636 394 611T379 547H445V393H303V553Q303 615 343 661T445 714Z" horiz-adv-x="536" unicode="“"/>
			<glyph d="M90 714H232V553Q232 493 192 447T90 393V459Q123 470 139 493T156 560H90ZM303 714H445V555Q445 490 404 445T303 393V459Q337 470 353 493T369 560H303Z" horiz-adv-x="536" unicode="”"/>
			<glyph d="M90 154H232V-7Q232 -69 191 -114T90 -167V-101Q122 -90 139 -67T156 0H90ZM303 154H445V-6Q445 -69 404 -114T303 -167V-101Q335 -90 352 -67T369 0H303Z" horiz-adv-x="536" unicode="„"/>
			<glyph d="M202 714H337V517H524V400H337V-166H202V400H16V517H202Z" horiz-adv-x="540" unicode="†"/>
			<glyph d="M202 714H337V517H524V400H337V144H524V27H337V-166H202V27H16V144H202V400H16V517H202Z" horiz-adv-x="540" unicode="‡"/>
			<glyph d="M242 535Q316 535 368 483T421 357Q421 284 370 231T242 178Q168 178 116 229T64 357Q64 431 115 483T242 535Z" horiz-adv-x="485" unicode="•"/>
			<glyph d="M80 154H237V0H80ZM413 154H570V0H413ZM746 154H903V0H746Z" horiz-adv-x="984" unicode="…"/>
			<glyph d="M556 722H641L229 -22H142ZM579 330Q724 330 724 155Q724 75 686 30T578 -14Q510 -14 471 31T432 155Q432 233 469 281T579 330ZM580 265Q550 265 536 244T522 162Q522 105 535 78T578 51Q608 51 621 73T634 155Q634 222 621 243T580 265ZM925 330Q1070 330 1070 155Q1070 75 1033 30T924 -14Q855 -14 816 31T778 155Q778 236 817 283T925 330ZM926 265Q895 265 881 243T868 164Q868 51 924 51Q953 51 966 71T980 155Q980 222 966 243T926 265ZM208 714Q353 714 353 539Q353 458 315 414T207 370Q138 370 99 416T61 539Q61 620 99 667T208 714ZM209 649Q187 649 174 638T156 610T151 548Q151 486 165 460T207 435Q236 435 249 455T263 540Q263 606 250 627T209 649Z" horiz-adv-x="1131" unicode="‰"/>
			<glyph d="M191 463V343L101 272L191 200V80L34 205V340Z" horiz-adv-x="225" unicode="‹"/>
			<glyph d="M34 463L191 340V205L34 80V200L124 272L34 343Z" horiz-adv-x="225" unicode="›"/>
			<glyph d="M240 722H325L-87 -22H-174Z" horiz-adv-x="151" unicode="⁄"/>
			<glyph d="M386 722Q470 722 568 672L507 547Q436 592 376 592Q271 592 236 455H480L449 383H225L224 351V341H437L406 269H232Q264 111 380 111Q454 111 534 174L533 23Q467 -17 378 -17Q260 -17 183 57T85 269H8L39 341H79V367L80 383H7L38 455H89Q114 579 192 650T386 722ZZ" horiz-adv-x="540" unicode="€"/>
			<glyph d="M291 721Q359 721 400 680T442 571Q442 496 396 423T250 265V153Q250 123 266 105T311 87Q349 87 399 125H401L448 53Q368 -14 276 -14Q200 -14 156 26T112 133V174L57 126H55L6 201L111 287V523Q111 610 162 665T291 721ZM290 629Q272 629 261 606T250 553V382Q329 467 329 563Q329 591 318 610T290 629Z" horiz-adv-x="484" unicode="ℓ"/>
			<glyph d="M54 714H390V634H273V302H171V634H54ZM443 714H579L682 443L785 714H920V302H824V594H822L716 302H647L541 594H539V302H443Z" horiz-adv-x="984" unicode="™"/>
			<glyph d="M373 721Q517 721 610 633T704 411Q704 315 655 241T525 150V118H703V0H416V204Q486 218 522 271T559 398Q559 482 507 539T374 597Q291 597 238 539T186 395Q186 323 220 272T327 204V0H40V118H218V150Q136 173 88 244T40 409Q40 500 84 571T204 682T373 721Z" horiz-adv-x="752" unicode="Ω"/>
			<glyph d="M293 535Q408 535 480 458T552 259H149V78Q209 19 293 19Q358 19 404 48T487 140L521 119Q475 46 423 15T293 -16Q180 -16 108 61T36 258Q36 380 108 457T293 535ZM291 500Q209 500 149 441V295H440V441Q375 500 291 500Z" horiz-adv-x="584" unicode="℮"/>
			<glyph d="M245 721Q375 721 448 625T521 358Q521 172 454 79T263 -13Q163 -13 98 51T34 219Q34 317 95 380T254 443Q325 443 388 395V403Q388 503 352 561T251 620Q191 620 130 567L60 647Q113 692 157 706T245 721ZM274 346Q223 346 192 309T161 212Q161 158 188 121T265 84Q319 84 353 135T387 262V291Q338 346 274 346ZZ" horiz-adv-x="556" unicode="∂"/>
			<glyph d="M263 712H406L684 0H2ZM334 561L183 124H496Z" horiz-adv-x="686" unicode="∆"/>
			<glyph d="M47 786H685V-214H553V660H180V-214H47Z" horiz-adv-x="733" unicode="∏"/>
			<glyph d="M31 786H626V660H208L471 293L190 -88H638V-214H19V-104L314 292L31 676Z" horiz-adv-x="657" unicode="∑"/>
			<glyph d="M40 306H545V199H40Z" horiz-adv-x="584" unicode="−"/>
			<glyph d="M240 722H325L-87 -22H-174Z" horiz-adv-x="151" unicode="∕"/>
			<glyph d="M132 372Q154 372 173 361T204 330T216 287Q216 267 205 247T174 215T133 203Q110 203 89 215T57 248T47 287Q47 310 59 330T91 361T132 372Z" horiz-adv-x="262" unicode="∙"/>
			<glyph d="M433 786H572L354 -214H232L85 89L32 63L-17 168L154 246L271 -9Z" horiz-adv-x="554" unicode="√"/>
			<glyph d="M220 463Q276 463 322 433T416 341Q464 406 511 434T612 463Q693 463 744 410T795 269Q795 180 744 124T611 69Q562 69 515 95T416 185Q364 124 321 97T224 71Q141 71 89 125T37 268Q37 356 87 409T220 463ZM608 349Q554 349 483 264Q551 184 611 184Q645 184 665 207T686 266Q686 304 664 326T608 349ZM221 348Q186 348 166 324T146 266Q146 231 166 208T223 185Q286 185 348 264Q276 348 221 348Z" horiz-adv-x="832" unicode="∞"/>
			<glyph d="M392 784Q440 784 475 760T511 702Q511 674 494 656T450 638Q424 638 412 653T393 693Q387 713 382 719T371 725Q352 725 352 689L358 515V37Q358 -92 318 -152T191 -213Q141 -213 105 -187T69 -124Q69 -96 89 -81T132 -67Q154 -67 166 -80T187 -125Q194 -154 207 -154Q226 -154 226 -124L220 33V515Q220 663 260 723T392 784Z" horiz-adv-x="612" unicode="∫"/>
			<glyph d="M478 474H564Q552 367 503 325T404 284Q362 284 279 315T157 347Q131 347 116 328T99 286H14Q22 376 63 423T179 471Q224 471 299 443T419 415Q447 415 461 432T478 474ZM169 249Q213 249 293 218T419 188Q446 188 459 206T477 248H563Q554 155 513 105T407 56Q362 56 278 88T156 120Q130 120 116 101T98 59H13Q20 146 61 197T169 249Z" horiz-adv-x="577" unicode="≈"/>
			<glyph d="M387 604L500 547L450 447H555V318H386L334 215H555V85H269L191 -72L77 -15L128 85H22V215H192L244 318H22V447H308Z" horiz-adv-x="577" unicode="≠"/>
			<glyph d="M555 576V441L201 347L555 249V114L22 282V411ZM22 86H555V-43H22Z" horiz-adv-x="577" unicode="≤"/>
			<glyph d="M22 576L555 411V282L22 114V249L376 347L22 441ZM22 86H555V-43H22Z" horiz-adv-x="577" unicode="≥"/>
			<glyph d="M229 747H347L533 356L347 -35H228L44 356ZM288 617L176 356L288 94L400 356Z" horiz-adv-x="577" unicode="◊"/>
			<glyph d="M59 517H201V-27Q201 -84 184 -116T130 -165T20 -182Q-7 -182 -27 -178V-61Q-16 -65 4 -65Q35 -65 47 -53T59 -18Z" horiz-adv-x="262" unicode=""/>
			<glyph d="M-56 921H101L197 779H98Z" unicode=""/>
			<glyph d="M143 921H300L146 779H47Z" unicode=""/>
			<glyph d="M57 921H187L297 779H182L120 860L56 779H-54Z" unicode=""/>
			<glyph d="M-54 921H61L123 840L187 921H297L186 779H56Z" unicode=""/>
			<glyph d="M55 911Q86 911 135 892Q176 876 198 876Q215 876 225 883T241 911H305Q293 851 265 824T193 797Q158 797 116 813Q70 831 46 831Q12 831 1 789H-62Q-55 843 -22 877T55 911Z" unicode=""/>
			<glyph d="M-49 905H86V788H-49ZM157 905H292V788H157Z" unicode=""/>
			<glyph d="M-65 884H308V809H-65Z" unicode=""/>
			<glyph d="M-47 921H18Q24 888 51 871T117 854Q212 855 227 921H290Q271 780 112 779Q-34 781 -47 921Z" unicode=""/>
			<glyph d="M122 987Q158 987 185 971T228 929T244 867Q244 833 227 805T182 762T121 747Q89 747 61 761T16 804T-1 867Q-1 902 17 931T63 973T122 987ZM121 934Q93 934 75 915T58 867Q58 838 75 819T121 800Q150 800 167 818T185 867Q185 896 168 915T121 934Z" unicode=""/>
			<glyph d="M27 921H184L35 779H-64ZM234 921H391L242 779H143Z" unicode=""/>
			<glyph d="M54 905H189V788H54Z" unicode=""/>
			<glyph d="M108 714H256L175 572H77Z" unicode=""/>
			<glyph d="M67 -50H212V-122Q212 -159 199 -178T161 -207T83 -217H77V-180Q107 -177 119 -167T134 -143H67Z" horiz-adv-x="262" unicode=""/>
			<glyph d="M189 788H196V751Q174 749 159 741T139 714H206V621H61V691Q61 729 74 749T113 778T189 788Z" horiz-adv-x="262" unicode=""/>
			<glyph d="M-8 718H504V0H-8ZM42 667V50H454V667ZM251 609Q305 609 340 573T375 478Q375 446 363 421T311 357Q277 326 270 311Q263 294 263 234H217L215 253Q215 300 226 328T278 395Q324 436 324 474Q324 508 300 533T248 559Q178 559 166 464L116 472Q130 609 251 609ZM214 184H270V117H214Z" horiz-adv-x="496" unicode=""/>
			<glyph d="M250 714Q268 714 325 710V604Q297 607 274 607Q243 607 231 593T219 547V517H317V422H219V0H77V422H-8V517H77V555Q77 631 122 672T250 714ZM383 714H525V597H383ZM383 517H525V0H383Z" horiz-adv-x="595" unicode="ﬁ"/>
			<glyph d="M250 714Q268 714 325 710V604Q297 607 274 607Q243 607 231 593T219 547V517H317V422H219V0H77V422H-8V517H77V555Q77 631 122 672T250 714ZM383 714H525V0H383Z" horiz-adv-x="595" unicode="ﬂ"/>
		</font>
</defs>
</svg>
